Мисс Переполох / She's Funny That Way (Питер Богданович) [2014, США, комедия, драма WEB-DL 720p] (Dub)

Ответить на тему
 

ScorpiuS ®

Стаж: 7 лет 3 месяца

Сообщений: 206

Симпатии: 122

Мисс Переполох / She's Funny That Way- Страна: США
Жанр: комедия, драма
Год выпуска: 2014
Продолжительность: 01:33:20-Перевод: Профессиональный (дублированный)
Cубтитры: нет
Режиссер: Питер Богданович-В ролях: Оуэн Уилсон, Имоджен Путс, Кэтрин Хан, Уилл Форте, Рис Иванс, Дженнифер Энистон, Сибилл Шепард, Остин Пендлтон, Джоанна Ламли, Ричард Льюис-Описание: На первый взгляд может показаться, что Изабелла — простая девушка по вызову из Бруклина. Но, ворвавшись в тихую и размеренную жизнь бродвейского режиссера Альберта, она буквально перевернет ее вверх дном, станет причиной нескольких скандалов и раскроет все немыслимые семейные тайны. Если вы о ней еще не слышали, тогда она идет к вам!-- 
--Качество видео: WEB-DL 720p
Формат видео: MKV
Видео: 3909 kb/s, 1280x690
Аудио: AC3, 384 kb/s (6 ch)

MediaInfo

Format : Matroska
Format version : Version 4 / Version 2
File size : 2.86 GiB
Duration : 1h 33mn
Overall bit rate : 4 380 Kbps
Encoded date : UTC 2015-06-03 18:11:26
Writing application : mkvmerge v6.9.1 ('Blue Panther')
64bit built on Apr 18 2014 18:23:38
Writing library : libebml v1.3.0 + libmatroska v1.4.1
Video
ID : 1
Format : AVC
Format/Info : Advanced Video Codec
Format profile : [email protected]
Format settings, CABAC : No
Format settings, ReFrames : 2 frames
Codec ID : V_MPEG4/ISO/AVC
Duration : 1h 33mn
Bit rate : 3 909 Kbps
Width : 1 280 pixels
Height : 690 pixels
Display aspect ratio : 1.855
Frame rate : 24.000 fps
Color space : YUV
Chroma subsampling : 4:2:0
Bit depth : 8 bits
Scan type : Progressive
Bits/(Pixel*Frame) : 0.184
Stream size : 2.55 GiB (89%)
Language : English
Default : Yes
Forced : No
Color primaries : BT.709-5, BT.1361, IEC 61966-2-4, SMPTE RP177
Transfer characteristics : BT.709-5, BT.1361
Matrix coefficients : BT.709-5, BT.1361, IEC 61966-2-4 709, SMPTE RP177
Audio
ID : 2
Format : AC-3
Format/Info : Audio Coding 3
Mode extension : CM (complete main)
Codec ID : A_AC3
Duration : 1h 33mn
Bit rate mode : Constant
Bit rate : 384 Kbps
Channel(s) : 6 channels
Channel positions : Front: L C R, Side: L R, LFE
Sampling rate : 48.0 KHz
Bit depth : 16 bits
Compression mode : Lossy
Stream size : 256 MiB (9%)
Language : Russian
Default : Yes
Forced : No
Menu
00:00:00.000 : en:Глава 1
00:02:40.000 : en:Глава 2
00:08:48.000 : en:Глава 3
00:15:33.000 : en:Глава 4
00:21:35.000 : en:Глава 5
00:27:40.000 : en:Глава 6
00:34:42.000 : en:Глава 7
00:39:52.000 : en:Глава 8
00:48:24.000 : en:Глава 9
00:52:24.000 : en:Глава 10
00:57:30.000 : en:Глава 11
01:02:15.000 : en:Глава 12
01:06:39.000 : en:Глава 13
01:12:09.000 : en:Глава 14
01:18:01.000 : en:Глава 15
01:20:28.000 : en:Глава 16

Скриншоты




Создавать темы 10-Июн-2015 13:02

[Профиль]  [ЛС] 
Показать сообщения:    
Ответить на тему

Текущее время: 18-Дек 10:15

Часовой пояс: UTC + 5



Вы не можете начинать темы
Вы не можете отвечать на сообщения
Вы не можете редактировать свои сообщения
Вы не можете удалять свои сообщения
Вы не можете голосовать в опросах
Вы не можете прикреплять файлы к сообщениям
Вы не можете скачивать файлы