Полное превращение (Филипп Коршунов) [2015 г., комедия, фантастика, WEB-DLRip] [Лицензия]

Ответить на тему
 

RecobaZico ®

Стаж: 2 года 5 месяцев

Сообщений: 22

Симпатии: 94

Полное превращение Год выпуска: 2015
Страна: Россия
Жанр: комедия, фантастика
Продолжительность: 01:20:27
Перевод: Не требуется [Лицензия]-Режиссер: Филипп Коршунов-В ролях: Павел Абдалов, Виталий Кудрявцев, Александра Булычёва, Дмитрий Варшавский, Арина Постникова, Олег Гаас, Наиль Абдрахманов, Ирина Крутик, Сергей Николаев, Александр Наумов-Описание: Главный герой — незадачливый риелтор Дима, жизнь которого — одна сплошная проблема: с работой, с родителями, с девушками…. Он так устал от себя и хочет стать кем-то другим, что случай… предоставляет ему такую возможность. Из рук чудаковатого ученого Дима получает прибор Превращатель, способный превращать любого человека в кого угодно. Пытаясь исправить свои проблемы, Дима меняет обликами двенадцать разных персонажей, и вовлекается в водоворот комических ситуаций, когда сломавшийся прибор начинает совершать превращения по своей воле. Постоянно превращаясь, балансируя на грани разоблачения, Дима распутывает свои проблемы и находит самого себя — доброго, умного парня, который возвращает страсть охладевшим родителям, строит карьеру и находит любовь.-Рейтинги:
 -Качество: WEB-DLRip
Формат: AVI
Видео кодек: XviD
Аудио кодек: AC3
Видео: 720x304, 24 fps, 1944 Кбит/с
Аудио: 384 kb/s, 6 ch, 48.0 KHz

MediaInfo!

Location: D:\Рекоба2015\p0LH0e.pPeBPash4eH1e.2015.O.WEB-DLRip.1400Mb.avi
Filename: p0LH0e.pPeBPash4eH1e.2015.O.WEB-DLRip.1400Mb.avi
File format: .avi (AVI)
File size: 1.37 GB
Duration: 1h 23mn
Navigate by chapters: Nope
Bitrate (all streams): 2 337 Kbps
...with: VirtualDubMod 1.5.10.2 (build 2540/release)
...by using: VirtualDubMod build 2540/release
Title: p0LH0e.pPeBPash4eH1e.2015.O.WEB-DLRip.1400Mb
Stream type: Video
Duration: 01:23:44
Codec: MPEG-4 Visual
Codec Profile: Advanced [email protected]
Codec ID: XVID
Video Size: 720 x 304 (2.35:1)
Frame rate: 24.000 fps
Stream size: 1.14 GiB (83%)
Bitrate: 1 944 Kbps
Codec library: XviD 1.2.1 (UTC 2008-12-04)
Colorspace: YUV
Scantype: Progressive
Bitdepth: 8 bits
Stream type: Audio #1
Duration: 01:23:44.084
Codec: AC-3
Codec ID: 2000
Samplerate: 48.0 KHz
Channels: 6 channels
Bitrate: 384 Kbps
Bitrate/Mode: Constant
Stream size: 230 MiB (16%)
Bitdepth: 16 bits
Compression mode: Lossy

Скриншоты



Создавать темы 10-Июн-2015 13:22

[Профиль]  [ЛС] 
Показать сообщения:    
Ответить на тему

Текущее время: 22-Окт 00:13

Часовой пояс: UTC + 5



Вы не можете начинать темы
Вы не можете отвечать на сообщения
Вы не можете редактировать свои сообщения
Вы не можете удалять свои сообщения
Вы не можете голосовать в опросах
Вы не можете прикреплять файлы к сообщениям
Вы не можете скачивать файлы