Как докачать недостающие файлы в обновляемой раздаче (uTorrent) [2015, RUS]

Ответить на тему
 

Сергей74 ®

Стаж: 2 года 5 месяцев

Сообщений: 211

Симпатии: 293

Как докачать недостающие файлы в обновляемой раздаче (uTorrent)
Год выпуска: 2015
Производитель: сделай сам
Сайт производителя: https://tas-ix.net
Автор: Сергей74
Продолжительность: 00:02:07
Тип раздаваемого материала: Видеоурок
Язык: Русский
Описание: Чтобы начать докачку новых серий, пользователям необходимо сделать следующее:
1. Остановить скачивание;
2. Удалить старый торрент у себя из клиента (старые серии удалять не надо);
3. Скачать новый торрент и запустить его у себя в клиенте вместо старого, при этом указать клиенту путь в старую папку куда и должно происходить скачивание новых серий.

Содержание

General
Complete name : C:\Users\Windows 7\Desktop\Новая папка2\урокк послед\урокк послед.mp4
Format : MPEG-4
Format profile : Base Media / Version 2
Codec ID : mp42
File size : 4.79 MiB
Duration : 2mn 6s
Overall bit rate mode : Variable
Overall bit rate : 317 Kbps
Encoded date : UTC 2015-06-09 09:52:08
Tagged date : UTC 2015-06-09 09:52:08
Video
ID : 1
Format : AVC
Format/Info : Advanced Video Codec
Format profile : [email protected]
Format settings, CABAC : Yes
Format settings, ReFrames : 4 frames
Codec ID : avc1
Codec ID/Info : Advanced Video Coding
Duration : 2mn 6s
Source duration : 2mn 6s
Bit rate mode : Variable
Bit rate : 242 Kbps
Maximum bit rate : 358 Kbps
Width : 980 pixels
Height : 712 pixels
Display aspect ratio : 1.376
Frame rate mode : Constant
Frame rate : 15.000 fps
Color space : YUV
Chroma subsampling : 4:2:0
Bit depth : 8 bits
Scan type : Progressive
Bits/(Pixel*Frame) : 0.023
Stream size : 3.66 MiB (76%)
Source stream size : 3.95 MiB (82%)
Language : English
Encoded date : UTC 2015-06-09 09:52:08
Tagged date : UTC 2015-06-09 09:52:08
mdhd_Duration : 126598
Color primaries : BT.709-5, BT.1361, IEC 61966-2-4, SMPTE RP177
Transfer characteristics : BT.709-5, BT.1361
Matrix coefficients : BT.709-5, BT.1361, IEC 61966-2-4 709, SMPTE RP177
Audio
ID : 2
Format : AAC
Format/Info : Advanced Audio Codec
Format profile : LC
Codec ID : 40
Duration : 2mn 6s
Source duration : 2mn 6s
Bit rate mode : Constant
Bit rate : 53.6 Kbps
Channel(s) : 2 channels
Channel positions : Front: L R
Sampling rate : 44.1 KHz
Compression mode : Lossy
Stream size : 828 KiB (17%)
Source stream size : 828 KiB (17%)
Language : English
Encoded date : UTC 2015-06-09 09:52:08
Tagged date : UTC 2015-06-09 09:52:08
mdhd_Duration : 126632
Формат видео: MP4
Видео: MPEG-4/AVC,Bit rate 242-358 Kbps,980x712 pixels,Display aspect ratio1.376,Frame rate15.000
Аудио: AAC,Bit rate 53.6 Kbps,2 channels,44.1 KHz

Скриншоты



Доп. информация: Сделано в Camtasia Studio 7

Создавать темы 10-Июн-2015 15:13

[Профиль]  [ЛС] 

Сергей74 ®

Стаж: 2 года 5 месяцев

Сообщений: 211

Симпатии: 293

aa


Последний раз редактировалось: Сергей74 (2015-07-20 12:51), всего редактировалось 4 раз(а)

Создавать темы 10-Июн-2015 16:12

[Профиль]  [ЛС] 

pirat

Стаж: 5 лет 5 месяцев

Сообщений: 216

Симпатии: 63

Чтобы начать докачку новых серий, пользователям необходимо сделать следующее:
1. Остановить скачивание;
2. Удалить старый торрент у себя из клиента (старые серии удалять не надо);
3. Скачать новый торрент и запустить его у себя в клиенте вместо старого, при этом указать клиенту путь в старую папку куда и должно происходить скачивание новых серий.
предлагаете альтернативы или тоже самое но с видеопоказом?
не особо понял сути.
ps. содержание - MediaInfo

Создавать темы 10-Июн-2015 23:06

[Профиль]  [ЛС] 

Сергей74 ®

Стаж: 2 года 5 месяцев

Сообщений: 211

Симпатии: 293

939933
Чтобы начать докачку новых серий, пользователям необходимо сделать следующее:
1. Остановить скачивание;
2. Удалить старый торрент у себя из клиента (старые серии удалять не надо);
3. Скачать новый торрент и запустить его у себя в клиенте вместо старого, при этом указать клиенту путь в старую папку куда и должно происходить скачивание новых серий.
предлагаете альтернативы или тоже самое но с видеопоказом?
не особо понял сути.
ps. содержание - MediaInfo
C видеопоказом тоже самое..просто для новичков,кто опасается что-то делать сам ..

Создавать темы 10-Июн-2015 23:53

[Профиль]  [ЛС] 
Показать сообщения:    
Ответить на тему

Текущее время: 22-Сен 18:26

Часовой пояс: UTC + 5



Вы не можете начинать темы
Вы не можете отвечать на сообщения
Вы не можете редактировать свои сообщения
Вы не можете удалять свои сообщения
Вы не можете голосовать в опросах
Вы не можете прикреплять файлы к сообщениям
Вы не можете скачивать файлы