Красивая и Безумная / Beautiful & Twisted (Кристофер Залла) [2015, США, триллер, драма, криминал, WEB-DLRip] (MVO : [iTunes])

Ответить на тему
 

mp1988 ®

Стаж: 6 лет 9 месяцев

Сообщений: 607

Симпатии: 971

Красивая и Безумная / Beautiful & Twisted
Страна: США
Жанр: триллер, драма, криминал
Год выпуска: 2015
Продолжительность: 01:26:15
Перевод: Профессиональный (многоголосый закадровый) [iTunes]
Cубтитры: нет
Режиссер: Кристофер Залла
В ролях: Роб Лоу, Пас Вега, Кэндис Берген, Сейшелл Гэбриел, Джуд Чикколелла, Мишель Херд, Уолтер ФонтЛеРой, Сони Брингас, Zachary Rifkin, Austin Wakefield
Описание: В июле 2009 года Бен Новак, унаследовавший сеть отелей Fontainebleau, был жестоко убит в номере отеля в пригороде Нью-Йорка. Своими ужасающими садистскими деталями страшное убийство вызвало мгновенный интерес средств массовой информации. Говорили, что зверское убийство было спланировано женщиной, пытавшейся уничтожить своего мужа и завладеть его состоянием.
Качество видео:WEB-DLRip
Формат видео: AVI
Видео: XviD 1878 kb/s, 720x400
Аудио: AC3, 384 kb/s (6 ch)

MediaInfo

Format : AVI
Format/Info : Audio Video Interleave
File size : 1.37 GiB
Duration : 1h 26mn
Overall bit rate : 2 271 Kbps
Movie name : Krasivaja i bezumnaja.2015.P.WEB-DLRip.ELEKTRI4KA.Uniongang.tv
Director : Äğàêîøà
Writing application : VirtualDubMod 1.5.10.3 | www.virtualdub-fr.org || (build 2550/release)
Copyright : UNIONGANG&RUSTORRENTS
Video
ID : 0
Format : MPEG-4 Visual
Format profile : Advanced [email protected]
Format settings, BVOP : 3
Format settings, QPel : No
Format settings, GMC : No warppoints
Format settings, Matrix : Default (H.263)
Codec ID : XVID
Codec ID/Hint : XviD
Duration : 1h 26mn
Bit rate : 1 878 Kbps
Width : 720 pixels
Height : 400 pixels
Display aspect ratio : 16:9
Frame rate : 23.976 fps
Color space : YUV
Chroma subsampling : 4:2:0
Bit depth : 8 bits
Scan type : Progressive
Compression mode : Lossy
Bits/(Pixel*Frame) : 0.272
Stream size : 1.13 GiB (83%)
Writing library : XviD 73
Audio
ID : 1
Format : AC-3
Format/Info : Audio Coding 3
Mode extension : CM (complete main)
Format settings, Endianness : Big
Codec ID : 2000
Duration : 1h 26mn
Bit rate mode : Constant
Bit rate : 384 Kbps
Channel(s) : 6 channels
Channel positions : Front: L C R, Side: L R, LFE
Sampling rate : 48.0 KHz
Bit depth : 16 bits
Compression mode : Lossy
Stream size : 237 MiB (17%)
Alignment : Split accross interleaves
Interleave, duration : 42 ms (1.00 video frame)
Interleave, preload duratio : 500 ms

Скриншоты





Создавать темы 10-Июн-2015 20:21

[Профиль]  [ЛС] 

-OdilmaX-

Стаж: 2 года 8 месяцев

Сообщений: 425

Симпатии: 854

Респект за оперативность....

Создавать темы 12-Июн-2015 12:01

[Профиль]  [ЛС] 
Показать сообщения:    
Ответить на тему

Текущее время: 18-Ноя 05:58

Часовой пояс: UTC + 5



Вы не можете начинать темы
Вы не можете отвечать на сообщения
Вы не можете редактировать свои сообщения
Вы не можете удалять свои сообщения
Вы не можете голосовать в опросах
Вы не можете прикреплять файлы к сообщениям
Вы не можете скачивать файлы