Выпускной экзамен / À toute épreuve (Антуан Блоссер) [2014, Франция, комедия, HDRip] (MVO)

Ответить на тему
 

Davron1402 ®

Стаж: 3 года 10 месяцев

Сообщений: 136

Симпатии: 122

Выпускной экзамен / À toute épreuve- Страна: Франция
Жанр: комедия
Год выпуска: 2014
Продолжительность: 01:36:52
Перевод: Профессиональный (многоголосый закадровый)
Cубтитры: нет
Режиссер: Антуан Блоссер
В ролях: Марк Лавуан, Валери Карсенти, Тома Соливерес, Сами Сегир, Лауни Муид, Луиз Гринбер, Mathilde Warnier, Финнегэн Олдфилд, Элисон Вилер, Waly Dya
Описание: Чтобы добиться любви любимой девушки и поступить после окончания школы в престижный вуз, главный герой должен непременно сдать итоговый экзамен на отлично, что сделать крайне сложно. Но пасовать перед трудностями не его тема. Вместе со своим другом они разрабатывают хитроумную аферу, как похитить из кабинета директора результаты экзамена. Однако учителя во французских школах тоже не дремлют.-Качество видео: HDRip
Формат видео: AVI
Видео: XVID, 720 x 304 (2.35:1), 24.000 fps, 1 819 Kbps
Аудио: AC-3, 48.0 KHz, 2 channels, 192 Kbps- 

MediaInfo

Имя файла: BYpuCKH0j.eg3ameH.2014.P.HDRip.1400Mb.avi
Формат файла: .avi (AVI)
Размер файла: 1.37 GB
Длительность: 1h 36mn
Навигация по главам: Нет
Bitrate (все потоки): 2 020 Kbps
Название: BYpuCKH0j.eg3ameH.2014.P.HDRip.1400Mb
Тип потока: Видео
Длительность: 01:36:52
Кодек: MPEG-4 Visual
Кодек/Профиль: Advanced [email protected]
Кодек/ID: XVID
Размеры изображения: 720 x 304 (2.35:1)
Частота кадров: 24.000 fps
Размер потока: 1.23 GiB (90%)
Битрейт: 1 819 Kbps
Библиотека кодирования: XviD 1.2.1 (UTC 2008-12-04)
Цветовое пространство: YUV
Тип развёртки: Progressive
Глубина: 8 bits
Тип потока: Звук #1
Длительность: 01:36:51.744
Кодек: AC-3
Кодек/ID: 2000
Частота дискретизации: 48.0 KHz
Каналов: 2 channels
Битрейт: 192 Kbps
Битрейт/тип: Constant
Размер потока: 133 MiB (10%)
Глубина: 16 bits
Метод сжатия: Lossy

Скриншоты






Последний раз редактировалось: Davron1402 (2015-06-11 12:29), всего редактировалось 1 раз

Создавать темы 11-Июн-2015 09:31

[Профиль]  [ЛС] 
Показать сообщения:    
Ответить на тему

Текущее время: 22-Ноя 15:45

Часовой пояс: UTC + 5



Вы не можете начинать темы
Вы не можете отвечать на сообщения
Вы не можете редактировать свои сообщения
Вы не можете удалять свои сообщения
Вы не можете голосовать в опросах
Вы не можете прикреплять файлы к сообщениям
Вы не можете скачивать файлы