(Mainstream Jazz) Harry Allen - Jazz For The Soul - 2005, FLAC (tracks+.cue), lossless

Ответить на тему
 

vanagrex ®

Стаж: 5 лет 5 месяцев

Сообщений: 118

Симпатии: 20

Harry Allen - Jazz For The SoulBallads Год издания: 2005
Издатель (лейбл): Jazz Medicine
Номер по каталогу: 1001
Жанр: Mainstream Jazz
Аудиокодек: FLAC (*.flac)
Тип рипа: tracks+.cue
Битрейт аудио: lossless
Продолжительность: 01:12:33
Треклист:
01.Body And Soul {05:21}
02.She's Funny That Way {05:26}
03.Sophisticated Lady {06:37}
04.Desafinado {06:48}
05.Laura {05:01}
06.Don't Worry 'Bout Me {05:18}
07.My Funny Valentine {06:00}
08.One For My Baby {04:54}
09.Star Dust {06:31}
10.Where Or When {05:24}
11.Willow Weep For Me {05:40}
12.Blame It On My Youth {04:43}
13.Young At Heart {04:45}

Personnel:

Harry Allen - ts
John Bunch - p
Joe Cohn - g
Joel Forbes - b
Chuck Riggs - dr

EAC log

Exact Audio Copy V1.0 beta 3 from 29. August 2011
Отчёт EAC об извлечении, выполненном 18. ноября 2012, 12:13
Harry Allen / Jazz For The Soul - Ballads
Дисковод: Optiarc DVD RW AD-5200A Adapter: 0 ID: 0
Режим чтения : Достоверность
Использование точного потока : Да
Отключение кэша аудио : Да
Использование указателей C2 : Нет
Коррекция смещения при чтении : 48
Способность читать области Lead-in и Lead-out : Нет
Заполнение пропущенных сэмплов тишиной : Да
Удаление блоков с тишиной в начале и конце : Нет
При вычислениях CRC использовались нулевые сэмплы : Да
Интерфейс : Встроенный Win32-интерфейс для Win NT/2000
Обработка зазоров : Добавлено к предыдущему треку
Выходной формат : Пользовательский кодировщик
Выбранный битрейт : 128 kBit/s
Качество : Высокий
Добавление ID3-тега : Нет
Утилита сжатия : C:\Program Files\Exact Audio Copy\Flac\flac.exe
Дополнительные параметры : -V -8 -T "Genre=%genre%" -T "Artist=%artist%" -T "Title=%title%" -T "Album=%albumtitle%" -T "Date=%year%" -T "Tracknumber=%tracknr%" -T "Comment=%comment%" %source%
TOC извлечённого CD
Трек | Старт | Длительность | Начальный сектор | Конечный сектор
---------------------------------------------------------------------
1 | 0:00.00 | 5:21.12 | 0 | 24086
2 | 5:21.12 | 5:26.32 | 24087 | 48568
3 | 10:47.44 | 6:37.00 | 48569 | 78343
4 | 17:24.44 | 6:48.15 | 78344 | 108958
5 | 24:12.59 | 5:01.34 | 108959 | 131567
6 | 29:14.18 | 5:18.25 | 131568 | 155442
7 | 34:32.43 | 6:00.34 | 155443 | 182476
8 | 40:33.02 | 4:54.62 | 182477 | 204588
9 | 45:27.64 | 6:31.21 | 204589 | 233934
10 | 51:59.10 | 5:24.32 | 233935 | 258266
11 | 57:23.42 | 5:40.70 | 258267 | 283836
12 | 63:04.37 | 4:43.38 | 283837 | 305099
13 | 67:48.00 | 4:45.05 | 305100 | 326479
Трек 1
Имя файла F:\2005.Harry Allen - Jazz for the Soul\01. Body And Soul.wav
Длина предзазора 0:00:02.00
Пиковый уровень 97.7 %
Скорость извлечения 2.6 X
Качество трека 100.0 %
CRC теста 8F74D204
CRC копии 8F74D204
Трек не обнаружен в базе AccurateRip
Копирование... OK
Трек 2
Имя файла F:\2005.Harry Allen - Jazz for the Soul\02. She's Funny That Way.wav
Пиковый уровень 97.7 %
Скорость извлечения 2.9 X
Качество трека 100.0 %
CRC теста 3D0F57F6
CRC копии 3D0F57F6
Трек не обнаружен в базе AccurateRip
Копирование... OK
Трек 3
Имя файла F:\2005.Harry Allen - Jazz for the Soul\03. Sophisticated Lady.wav
Пиковый уровень 97.7 %
Скорость извлечения 3.2 X
Качество трека 100.0 %
CRC теста 9CD0C224
CRC копии 9CD0C224
Трек не обнаружен в базе AccurateRip
Копирование... OK
Трек 4
Имя файла F:\2005.Harry Allen - Jazz for the Soul\04. Desafinado.wav
Пиковый уровень 97.7 %
Скорость извлечения 3.5 X
Качество трека 100.0 %
CRC теста 77DBD4F5
CRC копии 77DBD4F5
Трек не обнаружен в базе AccurateRip
Копирование... OK
Трек 5
Имя файла F:\2005.Harry Allen - Jazz for the Soul\05. Laura.wav
Пиковый уровень 97.7 %
Скорость извлечения 3.2 X
Качество трека 99.9 %
CRC теста 950EB740
CRC копии 950EB740
Трек не обнаружен в базе AccurateRip
Копирование... OK
Трек 6
Имя файла F:\2005.Harry Allen - Jazz for the Soul\06. Don't Worry 'Bout Me.wav
Пиковый уровень 97.7 %
Скорость извлечения 3.6 X
Качество трека 100.0 %
CRC теста 3633C914
CRC копии 3633C914
Трек не обнаружен в базе AccurateRip
Копирование... OK
Трек 7
Имя файла F:\2005.Harry Allen - Jazz for the Soul\07. My Funny Valentine.wav
Пиковый уровень 97.7 %
Скорость извлечения 3.7 X
Качество трека 100.0 %
CRC теста 49012269
CRC копии 49012269
Трек не обнаружен в базе AccurateRip
Копирование... OK
Трек 8
Имя файла F:\2005.Harry Allen - Jazz for the Soul\08. One For My Baby.wav
Пиковый уровень 97.7 %
Скорость извлечения 3.3 X
Качество трека 99.9 %
CRC теста 02BA8AAD
CRC копии 02BA8AAD
Трек не обнаружен в базе AccurateRip
Копирование... OK
Трек 9
Имя файла F:\2005.Harry Allen - Jazz for the Soul\09. Star Dust.wav
Пиковый уровень 97.7 %
Скорость извлечения 3.8 X
Качество трека 100.0 %
CRC теста 8BE7FB91
CRC копии 8BE7FB91
Трек не обнаружен в базе AccurateRip
Копирование... OK
Трек 10
Имя файла F:\2005.Harry Allen - Jazz for the Soul\10. Where Or When.wav
Пиковый уровень 97.7 %
Скорость извлечения 3.7 X
Качество трека 100.0 %
CRC теста A90ACD4F
CRC копии A90ACD4F
Трек не обнаружен в базе AccurateRip
Копирование... OK
Трек 11
Имя файла F:\2005.Harry Allen - Jazz for the Soul\11. Willow Weep For Me.wav
Пиковый уровень 97.7 %
Скорость извлечения 3.4 X
Качество трека 99.9 %
CRC теста 08527807
CRC копии 08527807
Трек не обнаружен в базе AccurateRip
Копирование... OK
Трек 12
Имя файла F:\2005.Harry Allen - Jazz for the Soul\12. Blame It On My Youth.wav
Пиковый уровень 97.7 %
Скорость извлечения 3.4 X
Качество трека 99.9 %
CRC теста CAABF4EF
CRC копии CAABF4EF
Трек не обнаружен в базе AccurateRip
Копирование... OK
Трек 13
Имя файла F:\2005.Harry Allen - Jazz for the Soul\13. Young At Heart.wav
Пиковый уровень 97.7 %
Скорость извлечения 3.6 X
Качество трека 100.0 %
CRC теста 92DC57A2
CRC копии 92DC57A2
Трек не обнаружен в базе AccurateRip
Копирование... OK
Ни одного трека нет в базе AccurateRip
Ошибок не произошло
Конец отчёта
==== Контрольная сумма отчёта 02BDCDBFF9EF412933938E0259CC008C2AB719670E9894D91F4FE9F39C5AAF1F ====

Создавать темы 11-Июн-2015 11:05

[Профиль]  [ЛС] 
Показать сообщения:    
Ответить на тему

Текущее время: 22-Авг 23:49

Часовой пояс: UTC + 5



Вы не можете начинать темы
Вы не можете отвечать на сообщения
Вы не можете редактировать свои сообщения
Вы не можете удалять свои сообщения
Вы не можете голосовать в опросах
Вы не можете прикреплять файлы к сообщениям
Вы не можете скачивать файлы