Газели / Les gazelles (Мона Ашаш) [2014, Франция, Комедия, HDRip] (MVO)

Ответить на тему
 

rusa ®

Стаж: 3 года 10 месяцев

Сообщений: 3

Симпатии: 2

Газели / Les gazelles
Страна: Франция
Жанр: Комедия
Год выпуска: 2014
Продолжительность: 1.39 Ч.
Перевод: Профессиональный (многоголосый закадровый)
Cубтитры: нет
Режиссер: Мона Ашаш
В ролях: Одри Флеро, Жозефин де Мо, Франк Гастамбид, Оливия Коте, Анн Броше, Камиль Шаму, Найдра Айади, Самюэль Беншетри, Камилль Коттин, Рэйчел Ардити
Описание: Перед лицом ипотеки рушились и не такие союзы — Мари и Эрик вместе давным давно и жили бы душа в душу, но как только появляется перспектива обзавестись первой квартирой в кредит, Мари теряет покой и бежит от семейной рутины, куда глаза глядят. Она оставляет Эрика, и вместе с компанией независимых и прекрасных подруг погружается в пучину парижских вечеринок.
Воодушевленная новыми неожиданными знакомствами, Мари научится по-новому воспринимать своё одиночество и быть сильнее.
Бурлеск ночной жизни и меланхоличный юмор в духе Вуди Аллена — в этой комедии Мари предстоит познать настоящую дружбу и, наконец, полюбить себя.
Доп. информация: Перед лицом ипотеки рушились и не такие союзы — Мари и Эрик вместе давным давно и жили бы душа в душу, но как только появляется ...
Качество видео: HDRip
Формат видео: AVI
Видео: MPEG-4 Visual, 1820 Kbps
Аудио: MPEG Audio, 128 Kbps, 2 channels, 48.0 KHz
Доп. информация о субтитрах: Отсуствуют

MediaInfo

Filename:Gazell1.2014.P.HDRip.1400Mb.avi
File format: .avi (AVI)
File size: 1.36 GB
Duration: 1h 39mn
Navigate by chapters: Nope
Bitrate (all streams): 1 820Kbps
...with: VirtualDubMod 1.5.10.2 (build 2540/release)
...by using: VirtualDubMod build 2540/release
Title: Les gazelles.2014.HDRip
Stream type: Video
Duration: 01:39:27
Codec: MPEG-4 Visual
Codec Profile: Advanced Simple@L5
Codec ID: XVID
Video Size: 720 x 304 (2.35:1)
Frame rate: 23.976 fps
Stream size: 1.20 GiB (82%)
Bitrate: 1 820 Kbps
Codec library: XviD 1.2.1 (UTC 2008-12-04)
Colorspace: YUV
Scantype: Progressive
Bitdepth: 8 bits
Stream type: Audio #1
Duration: 01:39:27.992
Codec: AC-3
Codec ID: 2000
Samplerate: 48.0 KHz
Channels: 2 channels
Bitrate: 128 Kbps
Bitrate/Mode: Constant
Stream size: 265 MiB (18%)
Bitdepth: 16 bits
Compression mode: Lossy

Скриншот c названием фильма

Скриншоты



Последний раз редактировалось: rusa (2015-06-11 16:41), всего редактировалось 3 раз(а)

Создавать темы 11-Июн-2015 16:15

[Профиль]  [ЛС] 

Каротажник

Стаж: 3 года 10 месяцев

Сообщений: 195

Симпатии: 211

rusa, выложите Медиа инфо

Создавать темы 11-Июн-2015 16:19

[Профиль]  [ЛС] 

Grock

Стаж: 6 лет 6 месяцев

Сообщений: 637

Симпатии: 113

rusa, Загрузите оригинальные скриншоты, размером 720x304, а также поправьте описание тех.данных картины

Создавать темы 13-Июн-2015 19:22

[Профиль]  [ЛС] 
Показать сообщения:    
Ответить на тему

Текущее время: 24-Авг 15:46

Часовой пояс: UTC + 5



Вы не можете начинать темы
Вы не можете отвечать на сообщения
Вы не можете редактировать свои сообщения
Вы не можете удалять свои сообщения
Вы не можете голосовать в опросах
Вы не можете прикреплять файлы к сообщениям
Вы не можете скачивать файлы