Опасная любовь / Сезон: 1 / Серии: 1-4 из 4 (Кирилл Капица) [2014, криминал,боевик, HDTVRip,720p]

Ответить на тему
 

Сергей74 ®

Стаж: 2 года 5 месяцев

Сообщений: 211

Симпатии: 293

Опасная любовь
Год выпуска: 2014
Производство: Россия Star Media
Жанр: криминал,боевик
Продолжительность: 4 x ~ 00:44:00
Субтитры: нет
Режиссёр: Кирилл Капица
В ролях: Игорь Лифанов, Анна Сырбу, Сергей Воробьёв, Владимир Щербаков, Игорь Петрусенко, Владимир Осадчий, Елена Турбал, Екатерина Кистень, Станислав Москвин, Игорь Гнездилов, Кирилл Капица, Евгений Ефремов, Андрей Мостренко, Сергей Деревянко, Дмитрий Гаврилов, Владимир Горянский, Дмитрий Сова, Вячеслав Довженко, Сергей Бондарчук, Игорь Мельников, Владимир Заднепровский, Юрий Высоцкий, Алексей Дребезгов, Александра Олейник, Игорь Арнаутов, Ада Роговцева, Григорий Боковенко
Описание: Банда Ивана Золотарева грабит только нечестных на руку бизнесменов, зарабатывающих свои деньги при помощи криминала. Члены банды считают себя современными "робингудами", они не просто грабят, а придумывают целое театральное действие, откровенно развлекаясь. У них есть принцип - никаких убийств, не при каких обстоятельствах. Иван - хитрый и смекалистый бандит, благодаря его выдумкам и осторожности, полиция никак не может напасть на их след . Но однажды случился сбой в налаженной схеме. При ограблении бизнесмена, один из членов банды застрелил телохранителя. В банде начался разлад... Дальше-больше. Один из бандитов украл деньги, принадлежавшие мафии, контролирующей продажу оружия в регионе. Во время погони он был случайно убит. Никто не знает, где он спрятал украденные деньги. Один только шанс, что об этом может знать вдова убитого. Иван знакомится с ней и неожиданно для себя влюбляется. И кажется - это взаимно. А полиция тем временем нападает на след банды...
Доп. информация: Rip by Nikolspup...канал на отдачу у меня до 1000 KB/s но от меня смогут качать только те, у кого белый ай пи или установлен ТЕРЕДО ... установите его и будет вас счастье.. всем пользователям UZONLINE обязательно надо ТЕРЕДО как установить тередо читайте ниже
Качество: HDTVRip 720p
Формат: MKV
Видео кодек: MPEG-4 AVC
Аудио кодек: AC3
Видео: MPEG-4 AVC, ~ 6000 Кбит/с, 1280x720, 25.000 кадр/с
Аудио: Русский (AC3, 2 ch, 192 Кбит/с)

MI

General
Unique ID : 197289601166805653863761659099061792928 (0x946C9855DFCCD3028D03658864C1B0A0)
Complete name : D:\Opasnaya.lyubov.2014.HDTVRip.(720p).MediaClub\Opasnaya.lyubov.(01.seriya.iz.04).2014.HDTVRip.(720p).MediaClub.mkv
Format : Matroska
Format version : Version 2
File size : 1.85 GiB
Duration : 42mn 50s
Overall bit rate : 6 172 Kbps
Encoded date : UTC 2015-06-08 00:55:49
Writing application : mkvmerge v7.8.0 ('River Man') 32bit built on Apr 3 2015 12:11:22
Writing library : libebml v1.3.1 + libmatroska v1.4.2
Video
ID : 1
Format : AVC
Format/Info : Advanced Video Codec
Format profile : [email protected]
Format settings, CABAC : Yes
Format settings, ReFrames : 9 frames
Codec ID : V_MPEG4/ISO/AVC
Duration : 42mn 50s
Bit rate : 5 980 Kbps
Width : 1 280 pixels
Height : 720 pixels
Display aspect ratio : 16:9
Frame rate : 25.000 fps
Color space : YUV
Chroma subsampling : 4:2:0
Bit depth : 8 bits
Scan type : Progressive
Bits/(Pixel*Frame) : 0.260
Stream size : 1.75 GiB (95%)
Writing library : x264 core 146 r2538 121396c
Encoding settings : cabac=1 / ref=9 / deblock=1:-2:-1 / analyse=0x3:0x113 / me=umh / subme=11 / psy=1 / psy_rd=1.00:0.20 / mixed_ref=1 / me_range=32 / chroma_me=1 / trellis=2 / 8x8dct=1 / cqm=0 / deadzone=21,11 / fast_pskip=0 / chroma_qp_offset=-3 / threads=12 / lookahead_threads=3 / sliced_threads=0 / nr=0 / decimate=0 / interlaced=0 / bluray_compat=0 / constrained_intra=0 / bframes=12 / b_pyramid=2 / b_adapt=2 / b_bias=0 / direct=1 / weightb=1 / open_gop=0 / weightp=2 / keyint=250 / keyint_min=25 / scenecut=40 / intra_refresh=0 / rc_lookahead=60 / rc=2pass / mbtree=0 / bitrate=5980 / ratetol=1.0 / qcomp=0.60 / qpmin=0 / qpmax=69 / qpstep=4 / cplxblur=20.0 / qblur=0.5 / vbv_maxrate=14000 / vbv_bufsize=14000 / nal_hrd=none / filler=0 / ip_ratio=1.40 / pb_ratio=1.30 / aq=3:0.80
Default : Yes
Forced : No
Color primaries : BT.709-5, BT.1361, IEC 61966-2-4, SMPTE RP177
Transfer characteristics : BT.709-5, BT.1361
Matrix coefficients : BT.709-5, BT.1361, IEC 61966-2-4 709, SMPTE RP177
Audio
ID : 2
Format : AC-3
Format/Info : Audio Coding 3
Mode extension : CM (complete main)
Format settings, Endianness : Big
Codec ID : A_AC3
Duration : 42mn 50s
Bit rate mode : Constant
Bit rate : 192 Kbps
Channel(s) : 2 channels
Channel positions : Front: L R
Sampling rate : 48.0 KHz
Bit depth : 16 bits
Compression mode : Lossy
Stream size : 58.8 MiB (3%)
Default : Yes
Forced : No
СКРИНШОТЫ и ПОСТЕР залиты в TAS-IX

Скриншоты










Последний раз редактировалось: Сергей74 (2015-08-05 23:17), всего редактировалось 3 раз(а)

Создавать темы 11-Июн-2015 22:57

[Профиль]  [ЛС] 

Сергей74 ®

Стаж: 2 года 5 месяцев

Сообщений: 211

Симпатии: 293

aa


Последний раз редактировалось: Сергей74 (2015-07-20 00:41), всего редактировалось 5 раз(а)

Создавать темы 11-Июн-2015 22:59

[Профиль]  [ЛС] 

фазилов

Стаж: 3 года 7 месяцев

Сообщений: 310

Симпатии: 344

У меня ТЕРЕДО устанавливается и через2-5 минут слетает. Что-ж будем качать у личеров и других сидов. au

Создавать темы 13-Июн-2015 21:39

[Профиль]  [ЛС] 

Сергей74 ®

Стаж: 2 года 5 месяцев

Сообщений: 211

Симпатии: 293

940338У меня ТЕРЕДО устанавливается и через2-5 минут слетает. Что-ж будем качать у личеров и других сидов. au
А как Вы определяете,что тередо слетает?

Создавать темы 13-Июн-2015 23:31

[Профиль]  [ЛС] 
Показать сообщения:    
Ответить на тему

Текущее время: 20-Сен 03:37

Часовой пояс: UTC + 5



Вы не можете начинать темы
Вы не можете отвечать на сообщения
Вы не можете редактировать свои сообщения
Вы не можете удалять свои сообщения
Вы не можете голосовать в опросах
Вы не можете прикреплять файлы к сообщениям
Вы не можете скачивать файлы