Эксперимент Уиджи 2: Кинотеатр смерти / The Ouija Experiment 2: Theatre of Death (Израэль Луна) [2014, США, ужасы, HDRip] (DVO : [den904 и DedSno]) (Original Eng)

Ответить на тему
 

akmal-19-66 ®

Стаж: 2 года 5 месяцев

Сообщений: 23

Симпатии: 120

Эксперимент Уиджи 2: Кинотеатр смерти / The Ouija Experiment 2: Theatre of Death
Страна: США
Жанр: ужасы
Год выпуска: 2014
Продолжительность: 01:24:12-Перевод: Любительский (двухголосый закадровый) [den904 и DedSno]
Cубтитры: нет
Оригинальная аудиодорожка: английский-Режиссер: Израэль Луна-В ролях: Swisyzinna, Джастин Армстронг, Эрик Зеттина, Николь Холт, Израэль Луна, Sally Greenland, Джессика Уиллис, Том Зэмброд, Эрик Виндоу, Shanon Snedden-Описание: Группа ничего не подозревающих посетителей кинотеатра попадают в смертельную ловушку после воскрешения голодного призрака с помощью доски Уиджи.-Качество видео: HDRip
Формат видео: AVI-Видео: Xvid 720x400 23.98fps
Аудио: Dolby AC3 48000Hz stereo 192kbps
Аудио 2: Dolby AC3 48000Hz stereo 256kbps

MediaInfo

General
Complete name : F:\2015\e disk\download\strannaya\Jeksperiment.Uidzhi.2.Kinoteatr.smerti.2014.L2.HDRip.avi
Format : AVI
Format/Info : Audio Video Interleave
File size : 1.35 GiB
Duration : 1h 24mn
Overall bit rate : 2 297 Kbps
Writing application : VirtualDubMod 1.5.10.2 (build 2540/release)
Writing library : VirtualDubMod build 2540/release
Video
ID : 0
Format : MPEG-4 Visual
Format profile : Advanced [email protected]
Format settings, BVOP : Yes
Format settings, QPel : No
Format settings, GMC : No warppoints
Format settings, Matrix : Default (H.263)
Muxing mode : Packed bitstream
Codec ID : XVID
Codec ID/Hint : XviD
Duration : 1h 24mn
Bit rate : 1 835 Kbps
Width : 720 pixels
Height : 400 pixels
Display aspect ratio : 16:9
Frame rate : 23.976 fps
Color space : YUV
Chroma subsampling : 4:2:0
Bit depth : 8 bits
Scan type : Progressive
Bits/(Pixel*Frame) : 0.266
Stream size : 1.08 GiB (80%)
Writing library : XviD 66
Audio #1
ID : 1
Format : AC-3
Format/Info : Audio Coding 3
Mode extension : CM (complete main)
Codec ID : 2000
Duration : 1h 24mn
Bit rate mode : Constant
Bit rate : 192 Kbps
Channel(s) : 2 channels
Channel positions : Front: L R
Sampling rate : 48.0 KHz
Stream size : 116 MiB (8%)
Alignment : Split accross interleaves
Interleave, duration : 42 ms (1.00 video frame)
Interleave, preload duration : 500 ms
Audio #2
ID : 2
Format : AC-3
Format/Info : Audio Coding 3
Mode extension : CM (complete main)
Codec ID : 2000
Duration : 1h 24mn
Bit rate mode : Constant
Bit rate : 256 Kbps
Channel(s) : 2 channels
Channel positions : Front: L R
Sampling rate : 48.0 KHz
Stream size : 154 MiB (11%)
Alignment : Split accross interleaves
Interleave, duration : 42 ms (1.00 video frame)
Interleave, preload duration : 500 ms

Скриншоты




Создавать темы 12-Июн-2015 07:04

[Профиль]  [ЛС] 
Показать сообщения:    
Ответить на тему

Текущее время: 17-Окт 16:41

Часовой пояс: UTC + 5



Вы не можете начинать темы
Вы не можете отвечать на сообщения
Вы не можете редактировать свои сообщения
Вы не можете удалять свои сообщения
Вы не можете голосовать в опросах
Вы не можете прикреплять файлы к сообщениям
Вы не можете скачивать файлы