Врумиз / Vroomiz / Сезон: 1 / Серии: 1-26 из 26 (Йонг Чул Джо / Yong Chul Joe) [2012, Корея Южная, мультфильм, приключения, детский, DVDRip] DUB

Ответить на тему
 

Ирина ®

Стаж: 3 года 8 месяцев

Сообщений: 57

Симпатии: 11

Врумиз / Vroomiz -Страна: Южная Корея/ [email protected]/EBS/SKB/KOSSA
Жанр: Мультсериал, приключения, детский
Продолжительность: 26 х ~ 00:13:11
Год выпуска: 2012
Перевод: Профессиональный (дублированный)
Русские субтитры: нет-Режиссёр: Йонг Чул Джо / Yong Chul Joe-Описание: Добро пожаловать в фантастический мир Врумиз. Здесь, в городе Зиппи Сити, вы познакомитесь с машинками-зверюшками — гепардом Спиди, обезьянкой Банги, олененком Фаррой, пандой ПиТи и жирафом Джиральдиной. Спиди — самый быстрый малый в Зиппи Сити. Он отважно гоняет по суперсовременному гоночному треку в Зиппи Сити и верит, что станет чемпионом. Жизнь Врумиз полна приключений, опасностей и сюрпризов. Спиди и его друзья, решая проблемы Зиппи Сити, с легкостью выходят из любой ситуации, проявляя невероятную выдумку и изобретательность. Пристегните ремни безопасности и поехали на прогулку с Врумиз! Врум-врум!-Качество: DVDRip
Формат: MP4
Видео: 480x272, (1.76:1), 25 fps, mpeg4, 1200kbps, 0.268 bit/pixel
Аудио: 44.1 kHz, AAC, 82 kbps
Субтитры: отсутствуют

Список серий

01 Пропавшие проказники
02 В поисках веселья
03 Сила воображения
04 Спасение на скорость
05 Клуб не для всех
06 Привидение каньона Карбюраторов
07 Самый лучший полицейский
08 Унесённые ветром
09 Загадочная дорога
10 Лунный Банги
11 Забытый друг
12 Грязная катастрофа
13 День розыгрышей
14 Ночные приключения
15 Гаражная распродажа
16 Копировальная машина
17 Маленький врунишка
18 Остуди двигатель
19 Капитан чистоты
20 Снежный день
21 Фантастика
22 Юные детективы
23 Летняя история
24 Дух соперничества
25 На морском причале
26 Легенда о драконе

Скриншоты

MI

General
Complete name                  : D:\Мультики\МАШИНЫ\__Врумиз\1 сезон 26 серий\1 Пропавшие проказники.mp4
Format                         : MPEG-4
Format profile                 : Base Media
Codec ID                       : isom
File size                      : 122 MiB
Duration                       : 13mn 12s
Overall bit rate mode          : Variable
Overall bit rate               : 1 287 Kbps
Encoded date                   : UTC 1970-01-01 00:00:00
Tagged date                    : UTC 1970-01-01 00:00:00
Video
ID                             : 1
Format                         : MPEG-4 Visual
Format profile                 : [email protected]
Format settings, BVOP          : No
Format settings, QPel          : No
Format settings, GMC           : No warppoints
Format settings, Matrix        : Default (H.263)
Codec ID                       : 20
Duration                       : 13mn 12s
Bit rate                       : 1 201 Kbps
Width                          : 480 pixels
Height                         : 272 pixels
Display aspect ratio           : 16:9
Frame rate mode                : Constant
Frame rate                     : 25.000 fps
Color space                    : YUV
Chroma subsampling             : 4:2:0
Bit depth                      : 8 bits
Scan type                      : Progressive
Compression mode               : Lossy
Bits/(Pixel*Frame)             : 0.368
Stream size                    : 113 MiB (93%)
Language                       : English
Encoded date                   : UTC 1970-01-01 00:00:00
Tagged date                    : UTC 1970-01-01 00:00:00
Audio
ID                             : 2
Format                         : AAC
Format/Info                    : Advanced Audio Codec
Format profile                 : LC
Codec ID                       : 40
Duration                       : 13mn 12s
Bit rate mode                  : Variable
Bit rate                       : 82.1 Kbps
Channel(s)                     : 2 channels
Channel positions              : Front: L R
Sampling rate                  : 44.1 KHz
Compression mode               : Lossy
Stream size                    : 7.75 MiB (6%)
Language                       : English
Encoded date                   : UTC 1970-01-01 00:00:00
Tagged date                    : UTC 1970-01-01 00:00:00

Создавать темы 13-Июн-2015 00:24

[Профиль]  [ЛС] 
Показать сообщения:    
Ответить на тему

Текущее время: 20-Сен 00:02

Часовой пояс: UTC + 5



Вы не можете начинать темы
Вы не можете отвечать на сообщения
Вы не можете редактировать свои сообщения
Вы не можете удалять свои сообщения
Вы не можете голосовать в опросах
Вы не можете прикреплять файлы к сообщениям
Вы не можете скачивать файлы