Кома / Coma (Майкл Крайтон) [1978, США, триллер, драма, детектив, BDRip] DVO

Ответить на тему
 

lotto ®

Стаж: 7 лет 10 месяцев

Сообщений: 221

Симпатии: 409

Кома / Coma
«Imagine your life hangs by a thread. Imagine your body hangs by a wire. Imagine you're not imagining»
-- Страна: США
Жанр: триллер, драма, детектив
Год выпуска: 1978
Продолжительность: 01:52:58
Перевод: Профессиональный (двухголосый закадровый)
Cубтитры: нет--Режиссер: Майкл Крайтон
В ролях: Женевьев Бюжо, Майкл Дуглас, Элизабет Эшли, Рип Торн, Ричард Уидмарк, Лоис Чайлз, Хари Родс, Гари Бартон, Фрэнк Доунинг, Ричард Дойл--Описание: Молодая женщина-доктор начинает подозревать, что в ее больнице творится что-то неладное. Относительно здоровые пациенты испытывают "осложнения" во время простых операций и впадают в кому. Затем несчастных коматозников отвозят в исследовательский институт, где они находятся под наблюдением. Доктору Сьюзан Уилер предстоит исследовать палаты, морги и другие мрачные места жутковатого медицинского центра Джефферсона и убедить своего скептически настроенного коллегу - доктора Марка, что ее подозрения - не паранойя.-- --Качество видео: BDRip
Формат видео: AVI
Видео: Xvid, 704x400, 23.976fps 1644kbps
Аудио: AC3, 48 KHz, 2 ch, 192kbps (русский, двухголосый)

MediaInfo

General
Complete name : Coma.1978.BDRip_[1.46].avi
Format : AVI
Format/Info : Audio Video Interleave
File size : 1.46 GiB
Duration : 1h 52mn
Overall bit rate : 1 846 Kbps
Writing application : VirtualDubMod 1.5.10.3 | www.virtualdub-fr.org || (build 2550/release)
Writing library : VirtualDubMod build 2550/release
Video
ID : 0
Format : MPEG-4 Visual
Format profile : Advanced [email protected]
Format settings, BVOP : 2
Format settings, QPel : No
Format settings, GMC : No warppoints
Format settings, Matrix : Custom
Codec ID : XVID
Codec ID/Hint : XviD
Duration : 1h 52mn
Bit rate : 1 645 Kbps
Width : 704 pixels
Height : 400 pixels
Display aspect ratio : 16:9
Frame rate : 23.976 fps
Color space : YUV
Chroma subsampling : 4:2:0
Bit depth : 8 bits
Scan type : Progressive
Compression mode : Lossy
Bits/(Pixel*Frame) : 0.244
Stream size : 1.30 GiB (89%)
Writing library : XviD 65
Audio
ID : 1
Format : AC-3
Format/Info : Audio Coding 3
Mode extension : CM (complete main)
Format settings, Endianness : Big
Codec ID : 2000
Duration : 1h 52mn
Bit rate mode : Constant
Bit rate : 192 Kbps
Channel(s) : 2 channels
Channel positions : Front: L R
Sampling rate : 48.0 KHz
Compression mode : Lossy
Stream size : 155 MiB (10%)
Alignment : Split accross interleaves
Interleave, duration : 42 ms (1.00 video frame)
Interleave, preload duratio : 500 ms

Скриншот c названием фильма

Скриншоты





Создавать темы 13-Июн-2015 15:37

[Профиль]  [ЛС] 
Показать сообщения:    
Ответить на тему

Текущее время: 21-Ноя 15:13

Часовой пояс: UTC + 5



Вы не можете начинать темы
Вы не можете отвечать на сообщения
Вы не можете редактировать свои сообщения
Вы не можете удалять свои сообщения
Вы не можете голосовать в опросах
Вы не можете прикреплять файлы к сообщениям
Вы не можете скачивать файлы