Великий гипнотизер / The Great Hypnotist (Лесте Чэнь) [2014, Китай, триллер, драма, детектив, DVDRip] (VO : Наташа Пушкарёва)

Ответить на тему
 

Hurshidd ®

Стаж: 2 года 4 месяца

Сообщений: 6

Симпатии: 8

Великий гипнотизер / The Great Hypnotist
Страна: Китай
Жанр: триллер, драма, детектив
Год выпуска: 2014
Продолжительность: 01:41:29
Перевод: Одноголосый закадровый Доп. инфо о переводе Наташа Пушкарёва
Cубтитры: нет
Режиссер: Лесте Чэнь
В ролях: Джин Ху, Сюй Чжэн, Жонг Люй, Карен Мок и др.
Описание: История об известном психологе с блестящей карьерой. Однажды он сталкивается с проблемным пациентом, встречи с которым даются ему непросто…
Качество видео: DVDRip
Формат видео: AVI
Видео: XviD, 1767 Кбит/с, 720х304
Аудио: MP3, 2 ch, 128 Кбит/с

MediaInfo

Hypnotist.avi
Format : AVI
Format/Info : Audio Video Interleave
File size : 1.25 GiB
Duration : 1h 41mn
Overall bit rate : 1 766 Kbps
Video
ID : 0
Format : MPEG-4 Visual
Format profile : Advanced [email protected]
Format settings, BVOP : 1
Format settings, QPel : No
Format settings, GMC : No warppoints
Format settings, Matrix : Default (MPEG)
Codec ID : XVID
Codec ID/Hint : XviD
Duration : 1h 41mn
Bit rate : 1 629 Kbps
Width : 720 pixels
Height : 304 pixels
Display aspect ratio : 2.35:1
Frame rate : 23.976 fps
Color space : YUV
Chroma subsampling : 4:2:0
Bit depth : 8 bits
Scan type : Progressive
Compression mode : Lossy
Bits/(Pixel*Frame) : 0.310
Stream size : 1.15 GiB (92%)
Writing library : XviD 64
Audio
ID : 1
Format : MPEG Audio
Format version : Version 1
Format profile : Layer 3
Mode : Joint stereo
Mode extension : MS Stereo
Codec ID : 55
Codec ID/Hint : MP3
Duration : 1h 41mn
Bit rate mode : Constant
Bit rate : 128 Kbps
Channel(s) : 2 channels
Sampling rate : 44.1 KHz
Compression mode : Lossy
Stream size : 92.9 MiB (7%)
Alignment : Split accross interleaves
Interleave, duration : 42 ms (1.00 video frame)
Interleave, preload duration : 500 ms
Writing library : LAME3.90.
Encoding settings : -m j -V 4 -q 5 -lowpass 15.5 -b 128

Скриншоты




Создавать темы 14-Июн-2015 03:42

[Профиль]  [ЛС] 
Показать сообщения:    
Ответить на тему

Текущее время: 24-Окт 09:17

Часовой пояс: UTC + 5



Вы не можете начинать темы
Вы не можете отвечать на сообщения
Вы не можете редактировать свои сообщения
Вы не можете удалять свои сообщения
Вы не можете голосовать в опросах
Вы не можете прикреплять файлы к сообщениям
Вы не можете скачивать файлы