Воспоминания о будущем / Testament of Youth (Джеймс Кент) [2014, Великобритания / BBC Films, Heyday Films, драма, военный, биография, история, HDRip] (Dub : [лицензия])

Ответить на тему
 

akmal-19-66 ®

Стаж: 2 года 6 месяцев

Сообщений: 23

Симпатии: 120

Воспоминания о будущем / Testament of Youth
Страна: Великобритания / BBC Films, Heyday Films
Жанр: драма, военный, биография, история
Год выпуска: 2014
Продолжительность: 02:09:44-Перевод: Профессиональный (дублированный)[лицензия]
Cубтитры: нет
Режиссер: Джеймс Кент-В ролях: Алисия Викандер, Кит Харингтон, Эмили Уотсон, Хейли Этвелл, Колин Морган, Доминик Уэст, Миранда Ричардсон, Тэрон Эджертон, Джоэнна Скэнлэн, Рэйчел Редфорд-Описание: Британская женщина вспоминает о том, как она жила во времена Первой мировой войны. Ее юность, мечты, первую любовь — все это разрушила война.-Рейтинги
IMDB рейтинг: 7.3/10 (2507 голосов)
КиноПоиск рейтинг: 7.840 (428 голосов)-Качество видео: HDRip
Формат видео: AVI-Видео кодек: XviD
Аудио кодек: AC3
Видео: 1216 kb/s, 720x304
Аудио: 384 kb/s (6 ch)

MediaInfo

General
Complete name : F:\2015\e disk\download\strannaya\Vospominanija.o.budushhem.2014.HDRip_MyTorrents.uz.avi
Format : AVI
Format/Info : Audio Video Interleave
File size : 1.46 GiB
Duration : 2h 9mn
Overall bit rate : 1 610 Kbps
Writing application : VirtualDubMod 1.5.10.3 | www.virtualdub-fr.org || (build 2550/release)
Writing library : VirtualDubMod build 2550/release
Video
ID : 0
Format : MPEG-4 Visual
Format profile : Advanced [email protected]
Format settings, BVOP : Yes
Format settings, QPel : No
Format settings, GMC : No warppoints
Format settings, Matrix : Default (H.263)
Muxing mode : Packed bitstream
Codec ID : XVID
Codec ID/Hint : XviD
Duration : 2h 9mn
Bit rate : 1 216 Kbps
Width : 720 pixels
Height : 304 pixels
Display aspect ratio : 2.35:1
Frame rate : 23.976 fps
Color space : YUV
Chroma subsampling : 4:2:0
Bit depth : 8 bits
Scan type : Progressive
Bits/(Pixel*Frame) : 0.232
Stream size : 1.10 GiB (76%)
Writing library : XviD 1.2.1 (UTC 2008-12-04)
Audio
ID : 1
Format : AC-3
Format/Info : Audio Coding 3
Mode extension : CM (complete main)
Codec ID : 2000
Duration : 2h 9mn
Bit rate mode : Constant
Bit rate : 384 Kbps
Channel(s) : 6 channels
Channel positions : Front: L C R, Side: L R, LFE
Sampling rate : 48.0 KHz
Stream size : 356 MiB (24%)
Alignment : Split accross interleaves
Interleave, duration : 42 ms (1.00 video frame)
Interleave, preload duration : 500 ms

Скриншоты




Создавать темы 14-Июн-2015 16:53

[Профиль]  [ЛС] 

Lolochka

Стаж: 5 лет 7 месяцев

Сообщений: 29

Симпатии: 9

Где раздача???

Создавать темы 16-Июн-2015 00:33

[Профиль]  [ЛС] 

Hurshidd

Стаж: 2 года 5 месяцев

Сообщений: 6

Симпатии: 8

помогу раздачей )))

Создавать темы 16-Июн-2015 01:56

[Профиль]  [ЛС] 

wtfmilk3

Стаж: 5 лет

Сообщений: 5

up

Создавать темы 09-Апр-2017 01:07

[Профиль]  [ЛС] 
Показать сообщения:    
Ответить на тему

Текущее время: 18-Ноя 11:44

Часовой пояс: UTC + 5



Вы не можете начинать темы
Вы не можете отвечать на сообщения
Вы не можете редактировать свои сообщения
Вы не можете удалять свои сообщения
Вы не можете голосовать в опросах
Вы не можете прикреплять файлы к сообщениям
Вы не можете скачивать файлы