Игра престолов / Game of Thrones / Сезон: 5 / Серии: 1-10 из 10 (Алан Тейлор, Даниэль Минахан, Дэвид Наттер) [2015, Фэнтези, драма, приключения, экранизация, HDTVRip] DUB (Kravec-Amedia)

Ответить на тему
 

Zab ®

Стаж: 6 лет 6 месяцев

Сообщений: 476

Симпатии: 424

--Игра престолов | Game of Thrones-- Год выпуска: 2015
Страна: США
Жанр: Фэнтези, драма, приключения, экранизация
Продолжительность: ~ 00:55:00-Перевод: Профессиональный (дублированный) | Kravec-Amedia-Режиссёр: Алан Тейлор, Даниэль Минахан, Дэвид Наттер, Брайан Кирк, Тимоти Ван Паттен, Дэвид Петрарка-В ролях: Лена Хиди, Питер Динклэйдж, Мишель Фэйрли, Эмилия Кларк, Кит Харингтон, Николай Костер-Валдау, Иэн Глен, Эйден Гиллен, Элфи Оуэн-Аллен, Мэйси Уильямс, Софи Тернер,Сибель Кекилли, Джеймс Космо, Стивен Диллэйн, Гетин Энтони, Гвендолин Кристи, Натали Дормер
Описание: «Игра престолов» новый сериал HBO, основанный на бестселлерах Джорджа Р.Р. Мартина. В мире, где лето и зимы длятся десятилетиями, на кону корона Вестероса. Предательство, похоть, интриги и сверхъестественные силы сотрясают все четыре стороны Королевства — от плетущего интриги юга, диких восточных земель, до замерзшего севера и древней Стены, что защищает королевство от тьмы за нею. Короли и королевы, рыцари и мятежники, лжецы и благородные люди борются за власть в кровавом сражении за Железный Трон.- -| Ссылка на альтернативную раздачу: https://tas-ix.net/viewtopic.php?t=105531-Качество: HDTVRip
Формат: AVI
Видео: XviD, 720x400 (16:9), 23,976 fps, ~1655 kbps
Аудио 1: AC3, 48 kHz, 2 ch, 192 kbps - Rus
Аудио 2: AC3, 48 kHz, 2 ch, 192 kbps - Eng
Субтитры: Русские (Амедиа), английские
Озвучено студией Кравец-Рекордз по заказу Амедиа
Роли озвучивали: Максим Сергеев, Михаил Черняк, Борис Хасанов, Марина Гладкая, Наталья Данилова, Андрей Кравец, Дмитрий Стрелков и другие...
Режиссер озвучания: Андрей Кравчук
Звукорежиссер: Евгений Пестряков
Перевод: Михаил Ягодкин

MI

Общее
Полное имя                               : D:\Movies\GOT (S05) DUB\Game.of.Thrones.S05E01.XviD.DUB.avi
Формат                                   : AVI
Формат/Информация                        : Audio Video Interleave
Размер файла                             : 797 Мбайт
Продолжительность                        : 54 м.
Общий поток                              : 2050 Кбит/сек
Программа кодирования                    : VirtualDubMod 1.5.10.3 | www.virtualdub-fr.org || (build 2550/release)
Библиотека кодирования                   : VirtualDubMod build 2550/release
Видео
Идентификатор                            : 0
Формат                                   : MPEG-4 Visual
Профиль формата                          : Advanced [email protected]
Параметр BVOP формата                    : 1
Параметр QPel формата                    : Нет
Параметр GMC формата                     : Без точки перехода
Параметр матрицы формата                 : Default (MPEG)
Идентификатор кодека                     : XVID
Идентификатор кодека/Подсказка           : XviD
Продолжительность                        : 54 м.
Битрейт                                  : 1651 Кбит/сек
Ширина                                   : 720 пикселей
Высота                                   : 400 пикселей
Соотношение сторон                       : 16:9
Частота кадров                           : 23,976 кадра/сек
Цветовое пространство                    : YUV
Субдискретизация насыщенности            : 4:2:0
Битовая глубина                          : 8 бит
Тип развёртки                            : Прогрессивная
Метод сжатия                             : С потерями
Бит/(Пиксели*Кадры)                      : 0.239
Размер потока                            : 642 Мбайт (81%)
Библиотека кодирования                   : XviD 73
Аудио #1
Идентификатор                            : 1
Формат                                   : AC-3
Формат/Информация                        : Audio Coding 3
Расширение режима                        : CM (complete main)
Параметр Endianness формата              : Big
Идентификатор кодека                     : 2000
Продолжительность                        : 54 м.
Вид битрейта                             : Постоянный
Битрейт                                  : 192 Кбит/сек
Каналы                                   : 2 канала
Расположение каналов                     : Front: L R
Частота                                  : 48,0 КГц
Битовая глубина                          : 16 бит
Метод сжатия                             : С потерями
Размер потока                            : 74,7 Мбайт (9%)
Выравнивание                             : Разделение по промежуткам
Продолжительность промежутка             : 42  мс. (1,00 видеокадр)
Время предзагрузки промежутка            : 500  мс.
Аудио #2
Идентификатор                            : 2
Формат                                   : AC-3
Формат/Информация                        : Audio Coding 3
Расширение режима                        : CM (complete main)
Параметр Endianness формата              : Big
Идентификатор кодека                     : 2000
Продолжительность                        : 54 м.
Вид битрейта                             : Постоянный
Битрейт                                  : 192 Кбит/сек
Каналы                                   : 2 канала
Расположение каналов                     : Front: L R
Частота                                  : 48,0 КГц
Битовая глубина                          : 16 бит
Метод сжатия                             : С потерями
Размер потока                            : 74,7 Мбайт (9%)
Выравнивание                             : Разделение по промежуткам
Продолжительность промежутка             : 42  мс. (1,00 видеокадр)
Время предзагрузки промежутка            : 500  мс.

Скриншоты



Последний раз редактировалось: Zab (2015-06-23 06:08), всего редактировалось 2 раз(а)

Создавать темы 15-Июн-2015 13:35

[Профиль]  [ЛС] 

Zab ®

Стаж: 6 лет 6 месяцев

Сообщений: 476

Симпатии: 424

В пекло Короля! ai
10 - финальная серия Сезона!
ak

Создавать темы 15-Июн-2015 14:05

[Профиль]  [ЛС] 

FoxSage

Стаж: 4 года 4 месяца

Сообщений: 197

Симпатии: 19

xxxxx, СУПУЕР. Спасибо

Создавать темы 15-Июн-2015 20:03

[Профиль]  [ЛС] 

sailer

Стаж: 8 лет 2 месяца

Сообщений: 37

Симпатии: 17

За дозор!!!

Создавать темы 16-Июн-2015 09:01

[Профиль]  [ЛС] 

Jassa

Стаж: 4 года 7 месяцев

Сообщений: 21

Симпатии: 6

ВНИМАНИЕ СПОЙЛЕР !!!

а я надеялся что хоть Сноува не прикончат, а нет, не тут то было

Создавать темы 18-Июн-2015 12:06

[Профиль]  [ЛС] 

stylex

Стаж: 6 лет 4 месяца

Сообщений: 41

Симпатии: 4

Ребята скорость ((( раздавайте плиз

Создавать темы 19-Июн-2015 11:51

[Профиль]  [ЛС] 

CIV

Стаж: 6 лет 6 месяцев

Сообщений: 10

Симпатии: 6

940956

ВНИМАНИЕ СПОЙЛЕР !!!

а я надеялся что хоть Сноува не прикончат, а нет, не тут то было
Есть шанс, что Сноу вернется в сюжет. Во-первых, Мартин (автор книги) на конференции на вопрос "Зачем Вы убили Джона Сноу?" ответил с гадостной ухмылочкой "А вы уверены?". За дословность не ручаюсь, но такое вот по смыслу проскакивало. Во-вторых, маньяки-сценаристы сериала вернули в Черный Замок жрицу Мелисандру, хотя могли запросто угробить ее вместе со Станнисом и его семьей (семья, к слову, в книге жива-здорова). А вот в книге Мелисандра Черный Замок и не покидала, и в поход на Винтерфелл не уезжала. Тем кто не помнит - жрецы огненного бога могут вокрешать людей. В сериале был эпизод, когда предводителя Братства Без Знамен после боя с Сандором Клиганом (Псом) воскрешает такой жрец, это было в сюжете про приключения Арьи Старк. А Мелисандра по сюжету куда как сильнее этого жреца. Но если и так, то в 6 сезоне Сноу не появится, актер в интервью это сказал. Вообщем, если не покажут торжественное сжигание его трупика (чтобы Белые Ходоки не "оживили"), то можно надеяться...

Создавать темы 19-Июн-2015 19:21

[Профиль]  [ЛС] 
Показать сообщения:    
Ответить на тему

Текущее время: 19-Ноя 13:34

Часовой пояс: UTC + 5



Вы не можете начинать темы
Вы не можете отвечать на сообщения
Вы не можете редактировать свои сообщения
Вы не можете удалять свои сообщения
Вы не можете голосовать в опросах
Вы не можете прикреплять файлы к сообщениям
Вы не можете скачивать файлы