Тренер / McFarland, USA (Ники Каро) [2015, США, Драма, спорт, HDRip] (MVO : [Лицензия])

Ответить на тему
 

RecobaZico ®

Стаж: 2 года 3 месяца

Сообщений: 22

Симпатии: 94

Тренер / McFarland, USA Страна: США
Жанр: Драма, спорт
Год выпуска: 2015
Продолжительность: 02:08:55-Перевод: Профессиональный (многоголосый закадровый) [Лицензия]
Cубтитры: нет
Режиссер: Ники Каро-В ролях: Кевин Костнер, Рамиро Родригес, Карлос Праттс, Джонни Ортиз, Рафаэль Мартинез, Гектор Дюран, Серджо Авелар, Майкл Агеро, Диана-Мария Рива, Омар Лейва-Описание: История, основана на реальных событиях. В начале девяностых, в маленьком городке МакФарланд, профессиональный тренер создает команду по легкой атлетике из обычных сорванцов и мелких «хулиганов», и приводит эту команду до вершины спортивного Олимпа. Население МакФарланда — это 90 процентов латиноамериканцы, которые приехали в США под видом переселенцев и беженцев…- -Качество видео: HDRip
Формат видео: AVI-Видео: XviD, 1161 kbps, 720x304
Аудио: AC3, 448 kb/s (6 ch) |Лицензия|

MediaInfo

Location: D:\Рекоба2015\TPEHeP.2015.P.HDRip.1.45Gb.avi
Filename: TPEHeP.2015.P.HDRip.1.45Gb.avi
File format: .avi (AVI)
File size: 1.46 GB
Duration: 2h 8mn
Navigate by chapters: Nope
Bitrate (all streams): 1 618 Kbps
...with: VirtualDubMod 1.5.10.3 | www.virtualdub-fr.org || (build 2550/release)
...by using: VirtualDubMod build 2550/release
Title: TPEHeP.2015.P.HDRip.1.45Gb
Stream type: Video
Duration: 02:08:55
Codec: MPEG-4 Visual
Codec Profile: Advanced [email protected]
Codec ID: XVID
Video Size: 720 x 304 (2.35:1)
Frame rate: 23.976 fps
Stream size: 1.05 GiB (72%)
Bitrate: 1 161 Kbps
Codec library: XviD 1.2.1 (UTC 2008-12-04)
Colorspace: YUV
Scantype: Progressive
Bitdepth: 8 bits
Stream type: Audio #1
Duration: 02:08:55.805
Codec: AC-3
Codec ID: 2000
Samplerate: 48.0 KHz
Channels: 6 channels
Bitrate: 448 Kbps
Bitrate/Mode: Constant
Stream size: 413 MiB (28%)
Bitdepth: 16 bits
Compression mode: Lossy

Скриншот c названием фильма

Скриншоты



Создавать темы 15-Июн-2015 16:58

[Профиль]  [ЛС] 
Показать сообщения:    
Ответить на тему

Текущее время: 21-Авг 17:13

Часовой пояс: UTC + 5



Вы не можете начинать темы
Вы не можете отвечать на сообщения
Вы не можете редактировать свои сообщения
Вы не можете удалять свои сообщения
Вы не можете голосовать в опросах
Вы не можете прикреплять файлы к сообщениям
Вы не можете скачивать файлы