Пингвины Мадагаскара / Penguins of Madagascar (Эрик Дарнелл / Eric Darnell, Simon J. Smith / Саймон Дж. Смит) [2014, мультфильм, комедия, приключения, BDRip]

Ответить на тему
 

Alex Dancer ®

Стаж: 5 лет 9 месяцев

Сообщений: 181

Симпатии: 21

-Пингвины Мадагаскара / Penguins of Madagascar- Год выхода: 2014
Страна: США / 20 Century Fox (DreamWorks Animation)
Жанр: Мультфильм, Комедия, Приключения, Семейный
Продолжительность: 1:31:49
Озвучивание: Профессиональное (полное дублирование)-Режиссер: Эрик Дарнелл, Саймон Дж. Смит-Роли озвучивали: Том МакГрат, Крис Миллер, Кристофер Найтс, Конрад Вернон, Джон Малкович, Бенедикт Камбербэтч, Кен Жонг, Аннет Махендру, Петер Стормаре, Энди Рихтер, ...-Описание: Четвёрка пингвинов-шпионов - Шкипер, Ковальски, Рико и Прапор - объединяется с командой «Северный ветер», помогающей беззащитным животным. Им предстоит остановить злобного осьминога, доктора Октавиуса Брайна, желающего уничтожить этот мир...- -Качество: BDRip (источник: Blu-ray Disc / 1080p)
Формат: AVI
Видео: 704x384 (1.83:1), 23,976 fps, XviD build 66 ~1806 kbps avg, 0.28 bit/pixel
Аудио: 48 kHz, AC3 Dolby Digital, 3/2 (L,C,R,l,r) + LFE ch, ~448.00 kbps avg-

MediaInfo

General
Format: AVI
Format/Info: Audio Video Interleave
File size: 1.45 GiB
Duration: 1h 31mn
Overall bit rate: 2 264 Kbps
Movie name: Пингвины Мадагаскара / Penguins of Madagascar (2014) BDRip
Writing application: VirtualDubMod 1.5.10.2 (build 2540/release)
Copyright: HQCLUB
Comment: 09.03.2015
Video
ID: 0
Format: MPEG-4 Visual
Format profile: Advanced [email protected]
Format settings, BVOP: 1
Format settings, QPel: No
Format settings, GMC: No warppoints
Format settings, Matrix: Custom
Codec ID: XVID
Codec ID/Hint: XviD
Duration: 1h 31mn
Bit rate: 1 807 Kbps
Width: 704 pixels
Height: 384 pixels
Display aspect ratio: 1.85:1
Frame rate: 23.976 fps
Color space: YUV
Chroma subsampling: 4:2:0
Bit depth: 8 bits
Scan type: Progressive
Compression mode: Lossy
Bits/(Pixel*Frame): 0.279
Stream size: 1.16 GiB (80%)
Writing library: XviD 66
Audio
ID: 1
Format: AC-3
Format/Info: Audio Coding 3
Mode extension: CM (complete main)
Format settings, Endianness: Big
Codec ID: 2000
Duration: 1h 31mn
Bit rate mode: Constant
Bit rate: 448 Kbps
Channel(s): 6 channels
Channel positions: Front: L C R, Side: L R, LFE
Sampling rate: 48.0 KHz
Bit depth: 16 bits
Compression mode: Lossy
Stream size: 294 MiB (20%)
Alignment: Split accross interleaves
Interleave, duration: 42 ms (1.00 video frame)
Interleave, preload duratio: 500 ms
-

Скриншоты




Создавать темы 16-Июн-2015 00:50

[Профиль]  [ЛС] 

Alex Dancer ®

Стаж: 5 лет 9 месяцев

Сообщений: 181

Симпатии: 21

Раздаю на полную до 25 скачавших. Потом включу остальные раздачи.
Прошу скачавших поддерживать раздачу.

Создавать темы 18-Июн-2015 18:05

[Профиль]  [ЛС] 
Показать сообщения:    
Ответить на тему

Текущее время: 21-Окт 20:43

Часовой пояс: UTC + 5



Вы не можете начинать темы
Вы не можете отвечать на сообщения
Вы не можете редактировать свои сообщения
Вы не можете удалять свои сообщения
Вы не можете голосовать в опросах
Вы не можете прикреплять файлы к сообщениям
Вы не можете скачивать файлы