Люди / Humans / Сезон: 1 / Серии: 1-8 из 8 (Льюис Арнольд, Сэмюэл Донован, Чина Му-Ен) [2015, фантастика, HDTVRip] MVO (NewStudio)

Ответить на тему
 

Zab ®

Стаж: 6 лет 5 месяцев

Сообщений: 476

Симпатии: 424

Люди | Humans -Год выпуска: 2015
Страна: США
Жанр: фантастика, драма
Продолжительность: ~ 00:45:00-Перевод: Профессиональный (многоголосый закадровый) | -Режиссёр: Льюис Арнольд, Сэмюэл Донован, Чина Му-Ен-В ролях: Эмили Беррингтон, Джемма Чан, Пикси Дейвис, Джек Дерджс, Sope Dirisu, Ребекка Фронт, Софи Гудинг, Том Гудман-Хилл, Уильям Хёрт-Описание: Действие сериала развернется в параллельном мире, где чрезвычайную популярность приобрели новые гаджеты - высокотехнологичные роботы-слуги, которые внешне пугающе похожи на людей. Одного такого «помощника по хозяйству» приобретает живущая в пригороде семья. Вскоре они осознают, что совместная с машиной жизнь повлечет за собой жуткие последствия.- -Качество: HDTVRip
Формат: AVI
Видео: XviD, ~ 1400 kbps, 720x400 (16:9), 23,976 fps
Аудио 1: MP3, 48,0 КГц, 2 ch, 128 kbps - Rus
Аудио 2: MP3, 48,0 КГц, 2 ch, 128 kbps - Eng
Субтитры: отсутствуют-

График выхода новых серий

Внимание! График ориентировочный, выход новой серии может быть перенесён из-за непредвиденных обстоятельств. График выхода серий в оригинале можно посмотреть на imdb или tv.com

Релиз

Озвучка: Многоголосое профессиональное закадровое озвучание (NewStudio)
Перевод: Наталия Черненко

MI

Общее
Полное имя : D:\загрузки\Humans.s01e01.HDTVRip.NewStudio.TV.avi
Формат : AVI
Формат/Информация : Audio Video Interleave
Размер файла : 552 Мбайт
Продолжительность : 45 м.
Общий поток : 1679 Кбит/сек
Программа кодирования : VirtualDubMod 1.5.10.2 (build 2540/release)
Библиотека кодирования : VirtualDubMod build 2540/release
Видео
Идентификатор : 0
Формат : MPEG-4 Visual
Профиль формата : Advanced [email protected]
Параметр BVOP формата : 2
Параметр QPel формата : Нет
Параметр GMC формата : Без точки перехода
Параметр матрицы формата : Default (MPEG)
Идентификатор кодека : XVID
Идентификатор кодека/Подсказка : XviD
Продолжительность : 45 м.
Битрейт : 1408 Кбит/сек
Ширина : 720 пикселей
Высота : 400 пикселей
Соотношение сторон : 16:9
Частота кадров : 25,000 кадров/сек
Цветовое пространство : YUV
Субдискретизация насыщенности : 4:2:0
Битовая глубина : 8 бит
Тип развёртки : Прогрессивная
Метод сжатия : С потерями
Бит/(Пиксели*Кадры) : 0.196
Размер потока : 463 Мбайт (84%)
Библиотека кодирования : XviD 73
Аудио #1
Идентификатор : 1
Формат : MPEG Audio
Версия формата : Version 1
Профиль формата : Layer 3
Режим : Joint stereo
Расширение режима : MS Stereo
Идентификатор кодека : 55
Идентификатор кодека/Подсказка : MP3
Продолжительность : 45 м.
Вид битрейта : Постоянный
Битрейт : 128 Кбит/сек
Каналы : 2 канала
Частота : 48,0 КГц
Метод сжатия : С потерями
Размер потока : 42,1 Мбайт (8%)
Выравнивание : Соединение по промежуткам
Продолжительность промежутка : 40 мс. (1,00 видеокадр)
Время предзагрузки промежутка : 504 мс.
Аудио #2
Идентификатор : 2
Формат : MPEG Audio
Версия формата : Version 1
Профиль формата : Layer 3
Режим : Joint stereo
Расширение режима : MS Stereo
Идентификатор кодека : 55
Идентификатор кодека/Подсказка : MP3
Продолжительность : 45 м.
Вид битрейта : Постоянный
Битрейт : 128 Кбит/сек
Каналы : 2 канала
Частота : 48,0 КГц
Метод сжатия : С потерями
Размер потока : 42,1 Мбайт (8%)
Выравнивание : Соединение по промежуткам
Продолжительность промежутка : 40 мс. (1,00 видеокадр)
Время предзагрузки промежутка : 504 мс.

Скриншоты



Раздача ведется путем добавления новых серий

Когда раздача ведётся путём добавления новых серий, при каждом добавлении создётся новый торрент. Чтобы начать докачку новой серии, пользователям необходимо сделать следующее:
(1) остановить скачивание,
(2) удалить старый торрент у себя из клиента (старые серии удалять не надо),
(3) скачать новый торрент и запустить его у себя в клиенте вместо старого, при этом указать клиенту путь в старую папку, куда и должно происходить скачивание новых серий.
Ваш клиент при этом должен произвести хеширование (проверку) старой папки (если не производит сам - помогите ему сделать это), и будет докачивать только те серии, которых у вас ещё нет. Старые серии при этом не удаляются, а продолжают раздаваться!
Eсли вы уже удалили старые серии, то предотвратить повторную закачку старых серий можно, отжав галочку в соответсвующих местах при запуске нового торрента. По возможности, желательно не удалять старые серии как можно дольше, чтобы релизёр не столько продолжал раздавать старые серии, а смог сконцентрироваться на новых.


Последний раз редактировалось: Zab (2015-09-11 20:23), всего редактировалось 7 раз(а)

Создавать темы 17-Июн-2015 04:51

[Профиль]  [ЛС] 

Rolex

Стаж: 5 лет 7 месяцев

Сообщений: 59

Симпатии: 11

Спасибо, очень классный сериал заценил пилот. Буду ждать продолжений

Создавать темы 19-Июн-2015 00:46

[Профиль]  [ЛС] 

Zab ®

Стаж: 6 лет 5 месяцев

Сообщений: 476

Симпатии: 424

Добавлена 2 - серия!

Создавать темы 24-Июн-2015 06:25

[Профиль]  [ЛС] 

Сергей74

Стаж: 2 года 5 месяцев

Сообщений: 211

Симпатии: 293

уже 3-4 серии есть.. ждём ;)

Создавать темы 08-Июл-2015 22:18

[Профиль]  [ЛС] 

Zab ®

Стаж: 6 лет 5 месяцев

Сообщений: 476

Симпатии: 424

Добавлена 4 - серия!

Создавать темы 09-Июл-2015 13:49

[Профиль]  [ЛС] 

Zab ®

Стаж: 6 лет 5 месяцев

Сообщений: 476

Симпатии: 424

Добавлена 5 - серия!

Создавать темы 15-Июл-2015 10:08

[Профиль]  [ЛС] 

Zab ®

Стаж: 6 лет 5 месяцев

Сообщений: 476

Симпатии: 424

Добавлена 6 - серия!

Создавать темы 23-Июл-2015 01:12

[Профиль]  [ЛС] 

Страх

Стаж: 3 года 11 месяцев

Сообщений: 1131

Симпатии: 448

1 ой серии - 5 Недель ранее а не Спустя, весь сюжет чуть ли не поменяли одной фразой неправильного перевода

Создавать темы 26-Июл-2015 18:09

[Профиль]  [ЛС] 

Zab ®

Стаж: 6 лет 5 месяцев

Сообщений: 476

Симпатии: 424

Добавлена 7 и 8 - серия!
ФИНАЛ!

Создавать темы 07-Сен-2015 10:47

[Профиль]  [ЛС] 
Показать сообщения:    
Ответить на тему

Текущее время: 23-Сен 21:37

Часовой пояс: UTC + 5



Вы не можете начинать темы
Вы не можете отвечать на сообщения
Вы не можете редактировать свои сообщения
Вы не можете удалять свои сообщения
Вы не можете голосовать в опросах
Вы не можете прикреплять файлы к сообщениям
Вы не можете скачивать файлы