Возвращение Духа Натха / Bhoothnath Returns (Нитеш Тивари / Nitesh Tiwari) [2014, Индия, Фэнтези, драма, комедия, HDRip] (MVO : ICG) (Sub Rus)

Ответить на тему
 

Suxrob89 ®

Стаж: 7 лет 3 месяца

Сообщений: 933

Симпатии: 564

-Возвращение Духа Натха / Bhoothnath Returns- Страна: Индия
Жанр: Фэнтези, драма, комедия
Год выпуска: 2014
Продолжительность: 02:31:09
Перевод: Любительский (многоголосый закадровый) ICG
Cубтитры: русские-Режиссер: Нитеш Тивари / Nitesh Tiwari-В ролях: Амитабх Баччан, Боман Ирани, Партх Бхалерао, Санджай Мишра, Уша Надкарни, Уша Джадхав, Анант Джог, Шанкар Сачдев, Виджай Маурья, Субрат Датта
В эпизодах (cameo): Шахрукх Кхан, Анураг Кашьяп, Ранбир Капур-Описание: Вернувшийся в Призрачный Мир, Дух Натх был встречен насмешками со стороны других призраков. Из-за его действий был подорван авторитет сообщества призраков. Чтобы вернуть себе уважение, Дух Натх должен вернуться в этот мир и напугать хоть одного ребенка. Но не все так просто. И дети не пугаются, и в стране столько проблем, что не время отдыхать в Призрачном Мире.-Качество видео: HDRip
Формат видео: AVI
Видео: 688x288 (2.39:1), 24.000 fps, XviD build 50 ~1242 kbps avg, 0.26 bit/pixel
Аудио: 48 kHz, MPEG Layer 3, 2 ch, ~128.00 kbps
Формат субтитров: SRT (отключаемые, отдельный файл)

MediaInfo

General
Complete name : H:\[Releases]\Vozvrashchenie.Duha.Natha.2014.HDRip.BwTorrents.ICG.ZT.avi
Format : AVI
Format/Info : Audio Video Interleave
File size : 1.46 GiB
Duration : 2h 31mn
Overall bit rate : 1 380 Kbps
Movie name : Bhoothnath.Returns.2014.HDRip.BwTorrents.ICG.ZT
Director : soso4eg
Writing application : VirtualDubMod 1.5.10.2 (build 2540/release)
Original source form/Name : Hindi
Comment : озв. ICG по суб. nml68
Video
ID : 0
Format : MPEG-4 Visual
Format profile : Advanced [email protected]
Format settings, BVOP : 1
Format settings, QPel : No
Format settings, GMC : No warppoints
Format settings, Matrix : Default (MPEG)
Codec ID : XVID
Codec ID/Hint : XviD
Duration : 2h 31mn
Bit rate : 1 243 Kbps
Width : 688 pixels
Height : 288 pixels
Display aspect ratio : 2.40:1
Frame rate : 24.000 fps
Color space : YUV
Chroma subsampling : 4:2:0
Bit depth : 8 bits
Scan type : Progressive
Compression mode : Lossy
Bits/(Pixel*Frame) : 0.261
Stream size : 1.31 GiB (90%)
Writing library : XviD 1.2.1 (UTC 2008-12-04)
Audio
ID : 1
Format : MPEG Audio
Format version : Version 1
Format profile : Layer 3
Mode : Joint stereo
Mode extension : MS Stereo
Codec ID : 55
Codec ID/Hint : MP3
Duration : 2h 31mn
Bit rate mode : Constant
Bit rate : 128 Kbps
Channel(s) : 2 channels
Sampling rate : 48.0 KHz
Compression mode : Lossy
Stream size : 138 MiB (9%)
Alignment : Aligned on interleaves
Interleave, duration : 42 ms (1.00 video frame)
Interleave, preload duratio : 504 ms

Скриншот c названием фильма

Скриншоты



Создавать темы 17-Июн-2015 07:42

[Профиль]  [ЛС] 
Показать сообщения:    
Ответить на тему

Текущее время: 25-Ноя 12:39

Часовой пояс: UTC + 5



Вы не можете начинать темы
Вы не можете отвечать на сообщения
Вы не можете редактировать свои сообщения
Вы не можете удалять свои сообщения
Вы не можете голосовать в опросах
Вы не можете прикреплять файлы к сообщениям
Вы не можете скачивать файлы