Onii-chan Dakedo Ai Sae Areba Kankeinai yo ne! / Мой "комплекс братика" морали не остановить (Кавагути Кэйитиро) [01-12 из 12] [2012] [БЕЗ ЦЕНЗУРЫ] [комедия, этти] BDRip 720p |Inspector_Gadjet & Nika Lenina|

Ответить на тему
 

SNIL ®

Стаж: 5 лет 11 месяцев

Сообщений: 2624

Симпатии: 341

Onii-chan Dakedo Ai Sae Areba Kankeinai yo ne!
Мой "комплекс братика" морали не остановить
-
Год выпуска: 2012
Страна: Япония
Жанр: комедия, этти
Продолжительность: 12 эп. по 25 мин.-Озвучка:
  • Inspector_Gadjet & Nika Lenina
-Режиссёр: Кавагути Кэйитиро
Автор оригинала: Судзуки Дайсукэ
Студия: Silver Link-Описание:
После смерти родителей 10-летних близнецов Химэнокодзи приняли разные люди. И вот после шести лет разлуки Акико узнала радостную весть – ее брат Акито стал настоящим мужчиной, живет самостоятельно и желает, чтобы они были вместе, как семья. Ради этого он перевелся в ее школу Св. Лилианы и теперь ждет сестру в огромном особняке на горе. Акико, с юных лет испытывавшая к брату отнюдь не сестринские чувства, летела на зов под лепестками сакуры и живо представляла, как они будут вдвоем, в ванной, на постели, рядом с ней… Увы, «особняк» превратился в общежитие членов Школьного совета, старший братик твердостью не уступил святому отшельнику, а вдобавок трое соседок в Акито тоже души не чают!
Разумеется, соседки главных героев оказались колоритными личностями. Президент Араси – разбитная пышногрудая деваха, что ходит с японским мечом и меняет любовников обоего пола, как перчатки. Вице-президент Анастасия – наполовину русская княгиня и ведет себя соответствующе, но ее чувства к Акито, увы, видны без слов. Наконец, казначея Харуоми вообще воспитывали как мальчика, и получилось непонятно что, поклявшееся быть Акито верным рабом… или рабыней… ее не поймешь. А где гарантия, что не появится кто-то еще? В общем, Акико, как и положено в этом жанре, предстоит сражение на два фронта, а каково, представьте, бедному парню? Дрова колоть ему негде, остается тайно писать хентайные романы. Так, глядишь, и напряжение сбросит, и на жизнь себе с сестрой заработает!-Качество: BDRip
Формат видео: mkv
Видео: [Winter] x264; 1280x720;[Hi10p] 23.976 fps, ~3000 kbps
Аудио: (Int): Rus - Aac; 48.0 khz; 2.0ch; 192 kbps
Аудио: (Int): Jap - Vorbis; 48.0 khz; 2.0ch; 256 kbps-

Подробные тех. данные

E:\Аниме\[AniDub]_Onii-chan_Dakedo_Ai_Sae_Areba_Kankeinai_yo_ne\[AniDub]_Onii-chan_Dakedo_Ai_Sae_Areba_Kankeinai_yo_ne_[01]_[BDrip720p_x264_Vorbis]_[Inspector_Gadjet_NikaLenina].mkv
   General
      Unique ID : 235003804118997852553367923225271758264 (0xB0CC161A5CF45F3381259EDCD3746DB8)
      Complete name : E:\Аниме\[AniDub]_Onii-chan_Dakedo_Ai_Sae_Areba_Kankeinai_yo_ne\[AniDub]_Onii-chan_Dakedo_Ai_Sae_Areba_Kankeinai_yo_ne_[01]_[BDrip720p_x264_Vorbis]_[Inspector_Gadjet_NikaLenina].mkv
      Format : Matroska
      Format version : Version 2
      File size : 584 MiB
      Duration : 24mn 12s
      Overall bit rate mode : Variable
      Overall bit rate : 3 377 Kbps
      Encoded date : UTC 2013-06-26 07:15:59
      Writing application : mkvmerge v4.4.0 ('Die Wiederkehr') сборка от Oct 31 2010 21:52:48
      Writing library : libebml v1.0.0 + libmatroska v1.0.0
   Video #1
      ID : 1
      Format : AVC
      Format/Info : Advanced Video Codec
      Format profile : High [email protected]
      Format settings, CABAC : Yes
      Format settings, ReFrames : 9 frames
      Muxing mode : Header stripping
      Codec ID : V_MPEG4/ISO/AVC
      Duration : 24mn 12s
      Bit rate : 2 861 Kbps
      Width : 1 280 pixels
      Height : 720 pixels
      Display aspect ratio : 16:9
      Frame rate mode : Constant
      Frame rate : 23.976 fps
      Color space : YUV
      Chroma subsampling : 4:2:0
      Bit depth : 10 bits
      Scan type : Progressive
      Bits/(Pixel*Frame) : 0.129
      Stream size : 495 MiB (85%)
      Writing library : x264 core 129 r2230 1cffe9f
      Encoding settings : cabac=1 / ref=9 / deblock=1:-2:-2 / analyse=0x3:0x133 / me=umh / subme=9 / psy=1 / psy_rd=0.90:0.00 / mixed_ref=1 / me_range=24 / chroma_me=1 / trellis=2 / 8x8dct=1 / cqm=0 / deadzone=21,11 / fast_pskip=1 / chroma_qp_offset=-2 / threads=6 / lookahead_threads=1 / sliced_threads=0 / nr=0 / decimate=0 / interlaced=0 / bluray_compat=0 / constrained_intra=0 / bframes=8 / b_pyramid=2 / b_adapt=2 / b_bias=0 / direct=1 / weightb=1 / open_gop=0 / weightp=2 / keyint=250 / keyint_min=23 / scenecut=40 / intra_refresh=0 / rc=crf / mbtree=0 / crf=15.6 / qcomp=0.70 / qpmin=9 / qpmax=40 / qpstep=4 / ip_ratio=1.40 / pb_ratio=1.30 / aq=1:0.90
      Default : No
      Forced : No
   Audio #2
      ID : 2
      Format : AC-3
      Format/Info : Audio Coding 3
      Mode extension : CM (complete main)
      Format settings, Endianness : Big
      Muxing mode : Header stripping
      Codec ID : A_AC3
      Duration : 24mn 12s
      Bit rate mode : Constant
      Bit rate : 192 Kbps
      Channel(s) : 2 channels
      Channel positions : Front: L R
      Sampling rate : 48.0 KHz
      Bit depth : 16 bits
      Compression mode : Lossy
      Stream size : 33.2 MiB (6%)
      Title : Inspector_Gadjet & NikaLenina
      Language : Russian
      Default : Yes
      Forced : No
   Audio #3
      ID : 3
      Format : Vorbis
      Format settings, Floor : 1
      Codec ID : A_VORBIS
      Duration : 24mn 12s
      Bit rate mode : Variable
      Bit rate : 256 Kbps
      Channel(s) : 2 channels
      Sampling rate : 48.0 KHz
      Compression mode : Lossy
      Stream size : 44.3 MiB (8%)
      Writing library : libVorbis (Schaufenugget) (20101101 (Schaufenugget))
      Language : Japanese
      Default : No
      Forced : No

Скриншоты



Последний раз редактировалось: SNIL (2015-06-17 21:16), всего редактировалось 1 раз

Создавать темы 17-Июн-2015 08:36

[Профиль]  [ЛС] 

SNIL ®

Стаж: 5 лет 11 месяцев

Сообщений: 2624

Симпатии: 341

Не УОшникам открыт канал до 700кбс

Создавать темы 17-Июн-2015 08:41

[Профиль]  [ЛС] 

Dead_Mopo3

Стаж: 5 лет 6 месяцев

Сообщений: 270

Симпатии: 25

Чую тут только Уошники =)

Комментарий от SNIL


Значит будите качать не выше 50 а то и меньше)

Создавать темы 17-Июн-2015 13:24

[Профиль]  [ЛС] 

Dead_Mopo3

Стаж: 5 лет 6 месяцев

Сообщений: 270

Симпатии: 25

Ага если тебя увидят =)

Создавать темы 17-Июн-2015 13:33

[Профиль]  [ЛС] 

LikeSmile

Стаж: 4 года 7 месяцев

Сообщений: 298

Симпатии: 48

начну качать только ради озвучки, чтобы потом ее вытащить и удалить)
п.с. удалю после того, как всем качающим дораздам

Комментарий от SNIL


Ну хоть на этом спасибо)

Создавать темы 17-Июн-2015 14:07

[Профиль]  [ЛС] 

Dead_Mopo3

Стаж: 5 лет 6 месяцев

Сообщений: 270

Симпатии: 25

940844начну качать только ради озвучки, чтобы потом ее вытащить и удалить)
п.с. удалю после того, как всем качающим дораздам
Спасибо то что раздаешь =) а то вечность бы не увидели снила.

Комментарий от SNIL


Вижу двоих (раздаю по полной): 91 и 94 надейся на них_)

Создавать темы 17-Июн-2015 14:35

[Профиль]  [ЛС] 

Razrushitel

Стаж: 4 года 5 месяцев

Сообщений: 148

Симпатии: 42

LikeSmile, >>начну качать только ради озвучки, чтобы потом ее вытащить и удалить)
Есть другая БДшка? случаем не та которую Fanky релизил?

Создавать темы 17-Июн-2015 15:40

[Профиль]  [ЛС] 

LikeSmile

Стаж: 4 года 7 месяцев

Сообщений: 298

Симпатии: 48

Shigayev.Rustam.1997, та самая, только на раздачу встать не смогу, т.к. на совсем другом харде валяется (еле дышит)
если есть желание - приезжай в гости лол-Dead_Mopo3, если тупо записать аниме - то пофиг.
У меня не УО, нет смысла давать свой ЛОКАЛЬНЫЙ айпишник-Shigayev.Rustam.1997, как знаешь


Последний раз редактировалось: LikeSmile (2015-06-17 16:55), всего редактировалось 2 раз(а)

Создавать темы 17-Июн-2015 16:25

[Профиль]  [ЛС] 

Dead_Mopo3

Стаж: 5 лет 6 месяцев

Сообщений: 270

Симпатии: 25

940868Shigayev.Rustam.1997, та самая, только на раздачу встать не смогу, т.к. на совсем другом харде валяется (еле дышит)
если есть желание - приезжай в гости лол
Гостей любишь?) оплатишь дорогу я приеду!)
LikeSmile можешь мне отдавать? айпи 10.5.184.161:64056 просто я тебя видел в пирах и ты мне отдавал, но сейчас ты то есть, то тебя нету, и отдача пропала =( только отдача идет и по 40 кб/с кача с других. Помоги плиз.
А все ненадо пошло поехало =)


Последний раз редактировалось: Dead_Mopo3 (2015-06-17 16:42), всего редактировалось 2 раз(а)

Создавать темы 17-Июн-2015 16:31

[Профиль]  [ЛС] 

Razrushitel

Стаж: 4 года 5 месяцев

Сообщений: 148

Симпатии: 42

LikeSmile, >>если есть желание - приезжай в гости лол
Нее, как нибудь в другой раз (слишком уж далеко я живу от тебя :D)
Dead_Mopo3, >>Гостей любишь?) оплатишь дорогу я приеду!)
Если так, то и меня захватите хД

Создавать темы 17-Июн-2015 16:40

[Профиль]  [ЛС] 

Dead_Mopo3

Стаж: 5 лет 6 месяцев

Сообщений: 270

Симпатии: 25

Блин к утру чет перестал скачивать =( а ведь все так хорошо качалось скачал 4 гб отдал тоже 4 =(

Создавать темы 18-Июн-2015 11:01

[Профиль]  [ЛС] 

Hurracan

Стаж: 2 года 2 месяца

Сообщений: 79

Симпатии: 80

раздача, пожалуйста раздавайте

Создавать темы 28-Сен-2015 17:02

[Профиль]  [ЛС] 

Hurracan

Стаж: 2 года 2 месяца

Сообщений: 79

Симпатии: 80

раздача

Создавать темы 29-Сен-2015 11:53

[Профиль]  [ЛС] 
Показать сообщения:    
Ответить на тему

Текущее время: 12-Дек 01:55

Часовой пояс: UTC + 5



Вы не можете начинать темы
Вы не можете отвечать на сообщения
Вы не можете редактировать свои сообщения
Вы не можете удалять свои сообщения
Вы не можете голосовать в опросах
Вы не можете прикреплять файлы к сообщениям
Вы не можете скачивать файлы