Рождённая революцией (1-10 серии из 10) (Григорий Кохан) [1974-1977 г, детектив, история, DVDRip]

Ответить на тему
 

фазилов ®

Стаж: 3 года 8 месяцев

Сообщений: 310

Симпатии: 344

РОЖДЁННАЯ РЕВОЛЮЦИЕЙ (1-10 серии из 10)
Год выпуска: 1974-1977
Страна: CCCР
Жанр: детектив, история
Продолжительность: 10 x ~ 01:20:00
Режиссер: Григорий Кохан
В ролях: Евгений Жариков, Наталья Гвоздикова, Виктор Шульгин, Улдис Пуцитис, Виталий Розстальный, Сергей Подгорный, Станислав Бородокин, Георгий Дворников, Сергей Иванов, Лев Прыгунов, Вадим Медведев, Адольф Шестаков, Сергей Дворецкий, Тамара Уржумова, Александр Январев, Юрий Шерстнев, Евгений Филатов, Александр Захаров, Сергей Полежаев, Владимир Талашко, Дмитрий Миргородский, Георгий Тейх, Ольга Матешко, Александр Быструшкин, Эрнст Романов, Евгений Леонов-Гладышев, Александр Филиппенко, Леонид Губанов, Лев Перфилов, Николай Погодин, Александр Вокач, Евгений Шутов
Описание: Рождённая революцией советская милиция в жестоких схватках с преступным миром обретала свою новую, отличную от царской полиции, сущность. Уже седой милицейский генерал Николай Кондратьев вспоминает прошлое, и перед его глазами проходит и собственная жизнь, и жизнь милиции как службы, которой он честно отдал все эти годы.
Доп. информация:
1-я серия «Трудная осень»
2-я серия «Нападение»
3-я серия «В огне»
4-я серия «Мы поможем тебе»
5-я серия «Шесть дней...»
6-я серия «Экзамен»
7-я серия «В ночь на 20-е»
8-я серия «Оборотни»
9-я серия «Последняя встреча» (часть 1)
10-я серия «Последняя встреча» (часть 2)
Каждая серия представляет собой законченный сюжет.

Качество: DVDRip
Формат: AVI
Видео кодек: XviD
Аудио кодек: AC3
Видео: 640x480 (1.33:1), 25 fps, XviD build 55 ~1469 kbps avg, 0.19 bit/pixel
Аудио: 48 kHz, AC3 Dolby Digital, 2/0 (L,R) ch, ~448.00 kbps avg

Media-Info

General
Complete name : D:\Мои релизы\Рождённая революцией (10 серий из 10) 1974-1977. avi\Rozhdennaya.revolyutsiey.(01-03.seriya.iz.10).1974-1977.XviD.DVDRip.kinozal.tv.avi
Format : AVI
Format/Info : Audio Video Interleave
Format profile : OpenDML
File size : 2.93 GiB
Duration : 3h 38mn
Overall bit rate : 1 925 Kbps
Writing application : VirtualDubMod 1.5.4.1 (build 2178/release)
Writing library : VirtualDubMod build 2178/release
Video
ID : 0
Format : MPEG-4 Visual
Format profile : Advanced [email protected]
Format settings, BVOP : 1
Format settings, QPel : No
Format settings, GMC : No warppoints
Format settings, Matrix : Custom
Codec ID : XVID
Codec ID/Hint : XviD
Duration : 3h 38mn
Bit rate : 1 469 Kbps
Width : 640 pixels
Height : 480 pixels
Display aspect ratio : 4:3
Frame rate : 25.000 fps
Color space : YUV
Chroma subsampling : 4:2:0
Bit depth : 8 bits
Scan type : Progressive
Compression mode : Lossy
Bits/(Pixel*Frame) : 0.191
Stream size : 2.24 GiB (76%)
Writing library : XviD 1.3.0.dev55
Audio
ID : 1
Format : AC-3
Format/Info : Audio Coding 3
Mode extension : CM (complete main)
Format settings, Endianness : Big
Codec ID : 2000
Duration : 3h 38mn
Bit rate mode : Constant
Bit rate : 448 Kbps
Channel(s) : 2 channels
Channel positions : Front: L R
Sampling rate : 48.0 KHz
Bit depth : 16 bits
Compression mode : Lossy
Stream size : 699 MiB (23%)
Alignment : Split accross interleaves
Interleave, duration : 96 ms (2.40 video frames)
Interleave, preload duration : 96 ms
Language : English

Скриншот c названием фильма

Скриншоты

Создавать темы 17-Июн-2015 11:21

[Профиль]  [ЛС] 

titton

Стаж: 7 лет 2 месяца

Сообщений: 69

Симпатии: 2

az az az плиз дайте скорости

Создавать темы 18-Окт-2015 18:20

[Профиль]  [ЛС] 

фазилов ®

Стаж: 3 года 8 месяцев

Сообщений: 310

Симпатии: 344

На раздаче постоянно. Качайте. Уже больше года релиз стоит а всё жалуетесь. Каждый качает и чухает. Не могу-же для каждого держать полный канал на раздачу релиза.

Создавать темы 24-Июл-2016 20:13

[Профиль]  [ЛС] 
Показать сообщения:    
Ответить на тему

Текущее время: 26-Сен 12:27

Часовой пояс: UTC + 5



Вы не можете начинать темы
Вы не можете отвечать на сообщения
Вы не можете редактировать свои сообщения
Вы не можете удалять свои сообщения
Вы не можете голосовать в опросах
Вы не можете прикреплять файлы к сообщениям
Вы не можете скачивать файлы