Врумиз / Vroomiz / Сезон: 2 / Серии: 1-26 из 26 (Йонг Чул Джо / Yong Chul Joe) [2012, Корея Южная, мультфильм, приключения, детский, DVDRip] DUB

Ответить на тему
 

Ирина ®

Стаж: 3 года 9 месяцев

Сообщений: 57

Симпатии: 11

Врумиз / Vroomiz / Сезон: 2 / Серии: 1-26 из 26 -Страна: Южная Корея/ [email protected]/EBS/SKB/KOSSA
Жанр: Мультсериал, приключения, детский
Продолжительность: 26 х ~ 00:13:37
Год выпуска: 2012
Перевод: Профессиональный (дублированный)
Русские субтитры: нет-Режиссёр: Йонг Чул Джо / Yong Chul Joe-Описание: Добро пожаловать в фантастический мир Врумиз. Здесь, в городе Зиппи Сити, вы познакомитесь с машинками-зверюшками — гепардом Спиди, обезьянкой Банги, олененком Фаррой, пандой ПиТи и жирафом Джиральдиной. Спиди — самый быстрый малый в Зиппи Сити. Он отважно гоняет по суперсовременному гоночному треку в Зиппи Сити и верит, что станет чемпионом. Жизнь Врумиз полна приключений, опасностей и сюрпризов. Спиди и его друзья, решая проблемы Зиппи Сити, с легкостью выходят из любой ситуации, проявляя невероятную выдумку и изобретательность. Пристегните ремни безопасности и поехали на прогулку с Врумиз! Врум-врум!-Качество: DVDRip
Формат: MP4
Видео: 640x480, (1.33:1), 29.97 fps mpeg4, 1200kbps, 0.13 bit/pixel
Аудио: 44.1 kHz, AAC, 90 kbps
Субтитры: отсутствуют

Список серий

01 Новая подруга
02 Шуточная болезнь
03 Ложная тревога
04 Цирковая жизнь
05 Волшебная лампа
06 Сильный соперник
07 Гонка на льду
08 Чистая победа
09 Дедушка Стэнли
10 Неожиданная преграда
11 Парк проблем
12 Застенчивый чемпион
13 Невероятный Дейв
14 Упрямый пациент
15 Угроза на двух колесах
16 Загадки на спор
17 В поисках сокровищ
18 Ночная гонка
19 Пришельцы в городе
20 Неожиданный поворот
21 Лесной друг
22 Весёлая команда
23 Лети как ветер
24 Силач Пити
25 Рождественская история
26 Спиди должен проиграть

Скриншоты

MI

General
Complete name                  : D:\Мультики\МАШИНЫ\__Врумиз\2 сезон\02 Шуточная болезнь.mp4
Format                         : MPEG-4
Format profile                 : Base Media
Codec ID                       : isom
File size                      : 127 MiB
Duration                       : 13mn 40s
Overall bit rate mode          : Variable
Overall bit rate               : 1 296 Kbps
Encoded date                   : UTC 1970-01-01 00:00:00
Tagged date                    : UTC 1970-01-01 00:00:00
Video
ID                             : 1
Format                         : MPEG-4 Visual
Format profile                 : [email protected]
Format settings, BVOP          : No
Format settings, QPel          : No
Format settings, GMC           : No warppoints
Format settings, Matrix        : Default (H.263)
Codec ID                       : 20
Duration                       : 13mn 40s
Bit rate                       : 1 201 Kbps
Width                          : 640 pixels
Height                         : 480 pixels
Display aspect ratio           : 4:3
Frame rate mode                : Constant
Frame rate                     : 29.970 fps
Color space                    : YUV
Chroma subsampling             : 4:2:0
Bit depth                      : 8 bits
Scan type                      : Progressive
Compression mode               : Lossy
Bits/(Pixel*Frame)             : 0.130
Stream size                    : 117 MiB (93%)
Language                       : English
Encoded date                   : UTC 1970-01-01 00:00:00
Tagged date                    : UTC 1970-01-01 00:00:00
Audio
ID                             : 2
Format                         : AAC
Format/Info                    : Advanced Audio Codec
Format profile                 : LC
Codec ID                       : 40
Duration                       : 13mn 40s
Bit rate mode                  : Variable
Bit rate                       : 91.0 Kbps
Channel(s)                     : 2 channels
Channel positions              : Front: L R
Sampling rate                  : 44.1 KHz
Compression mode               : Lossy
Stream size                    : 8.90 MiB (7%)
Language                       : English
Encoded date                   : UTC 1970-01-01 00:00:00
Tagged date                    : UTC 1970-01-01 00:00:00

Создавать темы 17-Июн-2015 18:53

[Профиль]  [ЛС] 
Показать сообщения:    
Ответить на тему

Текущее время: 20-Окт 13:38

Часовой пояс: UTC + 5



Вы не можете начинать темы
Вы не можете отвечать на сообщения
Вы не можете редактировать свои сообщения
Вы не можете удалять свои сообщения
Вы не можете голосовать в опросах
Вы не можете прикреплять файлы к сообщениям
Вы не можете скачивать файлы