Мы - легенды / Seuls two (Рамзи Бедиа, Эрик Жюдор) [2008, Франция, комедия, DVDRip] (Dub) (Original Rus)

Ответить на тему
 

Homer Simpson ®

Стаж: 5 лет 9 месяцев

Сообщений: 4

Симпатии: 2

Мы - легенды / Seuls two
Страна: Франция
Жанр: комедия
Год выпуска: 2008
Продолжительность: 1:29:57
Перевод: Профессиональный (дублированный)
Cубтитры: нет
Оригинальная аудиодорожка: русский
Режиссер: Рамзи Бедиа, Эрик Жюдор
В ролях: Рамзи Бедиа, Эрик Жюдор, Элоди Буше, Кристин Скотт Томас, Бенуа Мажимель, Эдуард Баэр, Омар Си, Фред Тестот, МС Жан Габен
Описание: Полицейский-неудачник Жерве Блондо 10 лет безрезультатно пытается поймать грабителя-рецидивиста Кёртиса и, в конечном итоге, становится объектом насмешек всего полицейского управления. Однажды, в очередной раз гоняясь за Кёртисом, Жерве вдруг замечает, что весь Париж вымер. В городе никого не осталось, кроме него и его давнего соперника. Проходит какое-то время, и, устав от одиночества, враги становятся друзьями.
Доп. информация: Вы думаете, что для «Формулы-1» существуют специальные трассы? Для наших старых знакомцев, Эрика и Рамзи, нигде нет преград. Они носятся на гоночных болидах по Елисейским полям, и их никто не останавливает! Весь Париж опустел будто бы специально для того, чтобы зрители насладились захватывающими приключениями полицейского и преступника, которым никто не мешает погрузиться в ситуацию, доведенную до абсурда.
Качество видео: DVDRip
Формат видео: AVI
Видео: XviD, 704x368 pixels, 1 864 Kbps
Аудио: AC-3, 2 channels, 48.0 KHz
Доп. информация о субтитрах: нет

MediaInfo

General
Complete name : H:\Мы - легенды\Мы - легенды.avi
Format : AVI
Format/Info : Audio Video Interleave
File size : 1.37 GiB
Duration : 1h 29mn
Overall bit rate : 2 193 Kbps
Writing application : VirtualDubMod 1.5.4.1 (build 2178/release)
Writing library : VirtualDub build 30009/release
Video
ID : 0
Format : MPEG-4 Visual
Format profile : Advanced Simple@L5
Format settings, BVOP : Yes
Format settings, QPel : No
Format settings, GMC : No warppoints
Format settings, Matrix : Custom
Codec ID : XVID
Codec ID/Hint : XviD
Duration : 1h 29mn
Bit rate : 1 864 Kbps
Width : 704 pixels
Height : 368 pixels
Display aspect ratio : 1.913
Frame rate : 25.000 fps
Color space : YUV
Chroma subsampling : 4:2:0
Bit depth : 8 bits
Scan type : Progressive
Compression mode : Lossy
Bits/(Pixel*Frame) : 0.288
Stream size : 1.16 GiB (85%)
Writing library : XviD 1.2.1 (UTC 2008-12-04)
Audio
ID : 1
Format : AC-3
Format/Info : Audio Coding 3
Mode extension : CM (complete main)
Format settings, Endianness : Big
Codec ID : 2000
Duration : 1h 29mn
Bit rate mode : Constant
Bit rate : 320 Kbps
Channel count : 2 channels
Channel positions : Front: L R
Sampling rate : 48.0 KHz
Bit depth : 16 bits
Compression mode : Lossy
Stream size : 205 MiB (15%)
Alignment : Aligned on interleaves
Interleave, duration : 40 ms (1.00 video frame)
Interleave, preload duration : 512 ms

Скриншоты





Последний раз редактировалось: Homer Simpson (2015-06-21 12:21), всего редактировалось 1 раз

Создавать темы 17-Июн-2015 20:00

[Профиль]  [ЛС] 

mars751

Стаж: 5 лет 6 месяцев

Сообщений: 227

Симпатии: 113


я вроде этот фильм не видел

Создавать темы 17-Июн-2015 23:54

[Профиль]  [ЛС] 

Grock

Стаж: 6 лет 8 месяцев

Сообщений: 637

Симпатии: 113

Homer Simpson, Добавьте тех.данные картины, а именно битрейт видео и разрешение, также продолжительность необходимо указывать в формате чч:мм:сс

Создавать темы 18-Июн-2015 23:29

[Профиль]  [ЛС] 

mars751

Стаж: 5 лет 6 месяцев

Сообщений: 227

Симпатии: 113

Создавать темы 22-Июн-2015 04:54

[Профиль]  [ЛС] 
Показать сообщения:    
Ответить на тему

Текущее время: 23-Окт 09:31

Часовой пояс: UTC + 5



Вы не можете начинать темы
Вы не можете отвечать на сообщения
Вы не можете редактировать свои сообщения
Вы не можете удалять свои сообщения
Вы не можете голосовать в опросах
Вы не можете прикреплять файлы к сообщениям
Вы не можете скачивать файлы