Вернуть отправителю / Return to Sender (Фоад Микати) [2015, США, триллер, WEB-DLRip-AVC] (DVO)

Ответить на тему
 

Davron1402 ®

Стаж: 3 года 11 месяцев

Сообщений: 136

Симпатии: 122

Вернуть отправителю / Return to Sender- Страна: США
Жанр: триллер
Год выпуска: 2015
Продолжительность: 01:35:27
Перевод: Любительский (двухголосый закадровый)
Cубтитры: нет
Режиссер: Фоад Микати
В ролях: Розамунд Пайк, Шайло Фернандес, Ник Нолти, Камрин Менхейм, Алекси Вассер, Румер Уиллис, Иллиана Даглас, Стивен Луис Граш, Донна ДюПлантье, Йен Барфорд
Описание: Медсестра, проживающая в маленьком городке, идет на свидание вслепую с человеком, который притворяется не тем, кто он есть на самом деле.-
Качество видео: WEB-DLRip-AVC
Формат видео: MKV
Видео: AVC, 1024 x 550 (1.85:1), 23.976 fps, 2 100 Kbps
Аудио: AC-3, 48.0 KHz, 2 channels, 192 Kbps- 

MediaInfo

Имя файла: Vernut.0tpravitelu.2015.L2.WEB-DLRip.AVC.mkv
Размер файла: 1.54 GB
Длительность: 1h 35mn
Навигация по главам: Нет
Bitrate (все потоки): 2 314 Kbps
Файл создан...: UTC 2015-06-11 16:32:45
Название: Vernut.0tpravitelu.2015.L2.WEB-DLRip.AVC
Тип потока: Видео
Длительность: 01:35:27
Кодек: AVC
Кодек/Профиль: [email protected]
Кодек/ID: V_MPEG4/ISO/AVC
Кодек/CABAC: Yes
Кодек/ReFrames: 4 frames
Размеры изображения: 1024 x 550 (1.85:1)
Частота кадров: 23.976 fps
Размер потока: 1.38 GiB (90%)
Битрейт: 2 100 Kbps
Стандарт: Component
Библиотека кодирования: x264 core 144 r2525
Цветовое пространство: YUV
Тип развёртки: Progressive
Глубина: 8 bits
Тип потока: Звук #1
Язык: Russian
Длительность: 01:35:27.347
Кодек: AC-3
Кодек/ID: A_AC3
Частота дискретизации: 48.0 KHz
Каналов: 2 channels
Битрейт: 192 Kbps
Битрейт/тип: Constant
Размер потока: 131 MiB (8%)
Глубина: 16 bits
Метод сжатия: Lossy

Скриншоты




Создавать темы 18-Июн-2015 10:09

[Профиль]  [ЛС] 
Показать сообщения:    
Ответить на тему

Текущее время: 14-Дек 19:56

Часовой пояс: UTC + 5



Вы не можете начинать темы
Вы не можете отвечать на сообщения
Вы не можете редактировать свои сообщения
Вы не можете удалять свои сообщения
Вы не можете голосовать в опросах
Вы не можете прикреплять файлы к сообщениям
Вы не можете скачивать файлы