Кучерявая заложница / Tooken (Джон Мэллори Ашер) [2015, США, комедия, WEB-DLRip] (DVO)

Ответить на тему
 

Davron1402 ®

Стаж: 3 года 7 месяцев

Сообщений: 136

Симпатии: 122

Кучерявая заложница / Tooken- Страна: США
Жанр: комедия
Год выпуска: 2015
Продолжительность: 01:20:45
Перевод: Любительский (двухголосый закадровый)
Cубтитры: нет
Режиссер: Джон Мэллори Ашер
В ролях: Ли Тергесен, Итан Сапли, Донни Уолберг, Дженни МакКарти, Лукас Хаас, Лорен Стемайл, Рено Уилсон, Маргарет Чо, Лора Ли, Эндрю Бауэн
Описание: Кучерявая заложница - это пародия на трилогию фильмов "Заложница". Жизнь агента Брайана Миллерса (Ли Тергесен) полна лишений - он лишился работы в ЦРУ, уважения своей семьи, да и вообще - самой семьи, его бывшую жену планирует забрать наглый афро-американскей Деньго Тряс, а дочь... даже дочь может быть отнята и лишена (если она у нее еще есть) невинности. Но будто всего этого мало, во время покупки подарка на день рождения дочки, Брайан привлекает к себе внимание крупного китайско-американского гангстера (Маргарита Хо), главная цель которого - отнять всё и у всех! А все потому, что однажды, у кого-то была забрата очень ценная вещь.-Качество видео: WEB-DLRip
Формат видео: AVI
Видео: Xvid, 720 x 304 (2.35:1), 23.976 fps, 2 040 Kbps
Аудио: AC-3, 48.0 KHz, 2 channels, 192 Kbps- 

MediaInfo

Имя файла: T2ken.2015.L2.WEB-DLRip.avi
Формат файла: .avi (AVI)
Размер файла: 1.38 GB
Длительность: 1h 20mn
Навигация по главам: Нет
Bitrate (все потоки): 2 438 Kbps
Название: T2ken.2015.L2.WEB-DLRip
Тип потока: Видео
Длительность: 01:20:45
Кодек: MPEG-4 Visual
Кодек/Профиль: Advanced [email protected]
Кодек/ID: XVID
Размеры изображения: 720 x 304 (2.35:1)
Частота кадров: 23.976 fps
Размер потока: 1.15 GiB (84%)
Битрейт: 2 040 Kbps
Библиотека кодирования: XviD 1.2.1 (UTC 2008-12-04)
Цветовое пространство: YUV
Тип развёртки: Progressive
Глубина: 8 bits
Тип потока: Звук #1
Длительность: 01:20:45.824
Кодек: AC-3
Кодек/ID: 2000
Частота дискретизации: 48.0 KHz
Каналов: 2 channels
Битрейт: 192 Kbps
Битрейт/тип: Constant
Размер потока: 111 MiB (8%)
Глубина: 16 bits
Метод сжатия: Lossy
Тип потока: Звук #2
Длительность: 01:20:45.824
Кодек: AC-3
Кодек/ID: 2000
Частота дискретизации: 48.0 KHz
Каналов: 6 channels
Битрейт: 192 Kbps
Битрейт/тип: Constant
Размер потока: 111 MiB (8%)
Глубина: 16 bits
Метод сжатия: Lossy

Скриншоты







Последний раз редактировалось: Davron1402 (2015-06-18 15:03), всего редактировалось 1 раз

Создавать темы 18-Июн-2015 12:58

[Профиль]  [ЛС] 
Показать сообщения:    
Ответить на тему

Текущее время: 21-Авг 16:54

Часовой пояс: UTC + 5



Вы не можете начинать темы
Вы не можете отвечать на сообщения
Вы не можете редактировать свои сообщения
Вы не можете удалять свои сообщения
Вы не можете голосовать в опросах
Вы не можете прикреплять файлы к сообщениям
Вы не можете скачивать файлы