Сшиватели / Stitchers / Сезон: 1 / Серии: 1-10 из 10 (Дженис Кук-Леонард, Тодд Холлэнд) [2015, Фантастика, HDTVRip] (VO : LevshaFilm)

Ответить на тему
 

lector_87 ®

Стаж: 3 года 10 месяцев

Сообщений: 391

Симпатии: 348

Сшиватели / Stitchers--
Год выпуска: 2015
Страна: США
Жанр: Фантастика
Продолжительность: 00:45:00--

Перевод: Любительский (одноголосый закадровый) LevshaFilm
субтитры: нет
Режиссёр: Дженис Кук-Леонард, Тодд Холлэнд--

В ролях: Кайл Харрис, Эллисон Скальотти, Росс Курт Ле, Ритеш Раджан, Салли Ричардсон-Уитфилд, Челси Винсент, Хьюго Армстронг--
Описание: В центре сюжета молодая женщина, работающая на секретную организацию, «сшивает» своё сознание с недавно умершими, чтобы раскрывать убийства.--
Качество: HDTVRip
Формат: AVI
Видео кодек: XviD
Аудио кодек: MP3
Видео: XviD,1500 kb/s, 720x400
Аудио: Russian: MP3, 192 kb/s (2 ch) / English: AC3, 384 kb/s (6 ch)--

MediaInfo

Расположение: D:\Video\Swivatel1.s01.Levsha.WEBDLRip\Swivatel1.s01e01.Levsha.WEB_DLRip.avi
Имя файла: Swivatel1.s01e01.Levsha.WEB_DLRip.avi
Формат файла: .avi (AVI)
Размер файла: 520.00 MB (545 257 472 bytes)
Длительность: 44mn 25s
Навигация по главам: Нет
Битрейт (все потоки): 1 636 Kbps
Создан при помощи: VirtualDubMod 1.5.10.2 (build 2540/release)
Использовалась библиотека: VirtualDubMod build 2540/release
Обложка: Отсутствует
Название: Swivatel1.s01e01.Levsha.WEB_DLRip
Тип потока: Видео
Длительность: 00:44:25
Кодек: MPEG-4 Visual
Кодек/профиль: Advanced [email protected]
Кодек/ID: XVID
Размеры изображения: 720 x 400 (16:9)
Частота кадров: 23.976 fps
Размер потока: 476 MiB (92%)
Битрейт: 1 499 Kbps
Метод сжатия: Lossy
Библиотека кодирования: XviD 1.2.1 (UTC 2008-12-04)
Цветовое пространство: YUV
Тип развёртки: Progressive
Колориметрия: 4:2:0
Глубина: 8 bits
Тип потока: Звук #1
Длительность: 00:44:25.788
Кодек: MPEG Audio
Кодек/профиль: Layer 3
Кодек/ID: 55
Частота дискретизации: 44.1 KHz
Каналов: 2 channels
Битрейт: 128 Kbps
Битрейт/тип: Constant
Размер потока: 40.7 MiB (8%)
Метод сжатия: Lossy

Скриншоты





Последний раз редактировалось: lector_87 (2015-08-27 23:25), всего редактировалось 10 раз(а)

Создавать темы 18-Июн-2015 22:00

[Профиль]  [ЛС] 

Rolex

Стаж: 5 лет 10 месяцев

Сообщений: 59

Симпатии: 11

Типа яЗомби ?

Создавать темы 19-Июн-2015 00:49

[Профиль]  [ЛС] 

lector_87 ®

Стаж: 3 года 10 месяцев

Сообщений: 391

Симпатии: 348

3 серия

Создавать темы 22-Июн-2015 18:15

[Профиль]  [ЛС] 

lector_87 ®

Стаж: 3 года 10 месяцев

Сообщений: 391

Симпатии: 348

4 серия

Создавать темы 07-Июл-2015 21:51

[Профиль]  [ЛС] 

lector_87 ®

Стаж: 3 года 10 месяцев

Сообщений: 391

Симпатии: 348

5 серия

Создавать темы 08-Июл-2015 21:47

[Профиль]  [ЛС] 

lector_87 ®

Стаж: 3 года 10 месяцев

Сообщений: 391

Симпатии: 348

6 серия

Создавать темы 16-Июл-2015 20:25

[Профиль]  [ЛС] 

lector_87 ®

Стаж: 3 года 10 месяцев

Сообщений: 391

Симпатии: 348

7 серия

Создавать темы 22-Июл-2015 19:01

[Профиль]  [ЛС] 

lector_87 ®

Стаж: 3 года 10 месяцев

Сообщений: 391

Симпатии: 348

Создавать темы 09-Авг-2015 17:28

[Профиль]  [ЛС] 

lector_87 ®

Стаж: 3 года 10 месяцев

Сообщений: 391

Симпатии: 348

финал сезона

Создавать темы 23-Авг-2015 19:28

[Профиль]  [ЛС] 
Показать сообщения:    
Ответить на тему

Текущее время: 12-Дек 02:13

Часовой пояс: UTC + 5



Вы не можете начинать темы
Вы не можете отвечать на сообщения
Вы не можете редактировать свои сообщения
Вы не можете удалять свои сообщения
Вы не можете голосовать в опросах
Вы не можете прикреплять файлы к сообщениям
Вы не можете скачивать файлы