Игра престолов / Game of Thrones / Сезон: 5 / Серии: 1-10 из 10 (Алан Тейлор, Даниэль Минахан, Дэвид Наттер, Брайан Кирк, Тимоти Ван Паттен, Дэвид Петрар) [2015, Фэнтези, драма, приключения, WEB-DLRip] (MVO : LostFilm) (MVO : AlexFilm) (DUB : Amedia)

Ответить на тему
 

emilsky ®

Стаж: 7 лет 4 месяца

Сообщений: 2237

Симпатии: 610

Игра престолов / Game of Thrones
Год выпуска: 2015
Страна: США
Жанр: Фэнтези, драма, приключения
Продолжительность: ~ 00:55:00
Перевод: Профессиональный многоголосый закадровый - LostFilm
Перевод 2: Профессиональный многоголосый закадровый -AlexFilm
Перевод 3: Полное дублирование -Amedia (Кравец)
Русские субтитры: есть
Режиссёр: Алан Тейлор, Даниэль Минахан, Дэвид Наттер, Брайан Кирк, Тимоти Ван Паттен, Дэвид Петрар
В ролях: Лена Хиди, Питер Динклэйдж, Мишель Фэйрли, Эмилия Кларк, Кит Харингтон, Николай Костер-Валдау, Иэн Глен, Эйден Гиллен, Элфи Оуэн-Аллен, Мэйси Уильямс, Сибель Кекилли, Джеймс Космо, Стивен Диллэйн, Гетин Энтони, Гвендолин Кристи, Натали Дормер
Описание: «Игра престолов» новый сериал HBO, основанный на бестселлерах Джорджа Р.Р. Мартина. В мире, где лето и зимы длятся десятилетиями, на кону корона Вестероса. Предательство, похоть, интриги и сверхъестественные силы сотрясают все четыре стороны Королевства — от плетущего интриги юга, диких восточных земель, до замерзшего севера и древней Стены, что защищает королевство от тьмы за нею. Короли и королевы, рыцари и мятежники, лжецы и благородные люди борются за власть в кровавом сражении за Железный Трон.
Доп. информация: рип, синхронизация звука и субтитров, постеры, форс. сабы - qqss44 - 1 серия
emilsky остальные
Качество: WEB-DLRip
Формат: AVI
Видео кодек: XviD
Аудио кодек: AC3
Видео: ~ 2106 kbps, 720x400
Аудио: AC3, 2 ch, 192 kbps
Аудио 2: AC3, 2 ch, 192 kbps
Аудио 3: AC3, 2 ch, 192 kbps
Субтитры: Русские, Forced, Full (Амедиа, 7kingdoms), английские

MediaInfo

e:\Сериалы\GOT (S05) WEB-DLRip\Game.Thrones.S05E01.WEB-DLRip.XviD.3xRus.Eng.avi
General
Complete name : e:\Сериалы\GOT (S05) WEB-DLRip\Game.Thrones.S05E01.WEB-DLRip.XviD.3xRus.Eng.avi
Format : AVI
Format/Info : Audio Video Interleave
File size : 1.06 GiB
Duration : 52mn 9s
Overall bit rate : 2 898 Kbps
Writing application : VirtualDubMod 1.5.10.3 | www.virtualdub-fr.org || (build 2550/release)
Writing library : VirtualDubMod build 2550/release
Video #0
ID : 0
Format : MPEG-4 Visual
Format profile : Advanced [email protected]
Format settings, BVOP : 1
Format settings, QPel : No
Format settings, GMC : No warppoints
Format settings, Matrix : Default (MPEG)
Codec ID : XVID
Codec ID/Hint : XviD
Duration : 52mn 9s
Bit rate : 2 106 Kbps
Width : 720 pixels
Height : 400 pixels
Display aspect ratio : 16:9
Frame rate : 23.976 fps
Color space : YUV
Chroma subsampling : 4:2:0
Bit depth : 8 bits
Scan type : Progressive
Compression mode : Lossy
Bits/(Pixel*Frame) : 0.305
Stream size : 786 MiB (73%)
Writing library : XviD 73
Audio #1
ID : 1
Format : AC-3
Format/Info : Audio Coding 3
Mode extension : CM (complete main)
Format settings, Endianness : Big
Codec ID : 2000
Duration : 52mn 8s
Bit rate mode : Constant
Bit rate : 192 Kbps
Channel(s) : 2 channels
Channel positions : Front: L R
Sampling rate : 48.0 KHz
Bit depth : 16 bits
Compression mode : Lossy
Stream size : 71.6 MiB (7%)
Alignment : Split accross interleaves
Interleave, duration : 42 ms (1.00 video frame)
Interleave, preload duration : 500 ms
Title : LostFilm
Audio #2
ID : 2
Format : AC-3
Format/Info : Audio Coding 3
Mode extension : CM (complete main)
Format settings, Endianness : Big
Codec ID : 2000
Duration : 52mn 8s
Bit rate mode : Constant
Bit rate : 192 Kbps
Channel(s) : 2 channels
Channel positions : Front: L R
Sampling rate : 48.0 KHz
Bit depth : 16 bits
Compression mode : Lossy
Stream size : 71.6 MiB (7%)
Alignment : Split accross interleaves
Interleave, duration : 42 ms (1.00 video frame)
Interleave, preload duration : 500 ms
Title : AlexFilm
Audio #3
ID : 3
Format : AC-3
Format/Info : Audio Coding 3
Mode extension : CM (complete main)
Format settings, Endianness : Big
Codec ID : 2000
Duration : 52mn 9s
Bit rate mode : Constant
Bit rate : 192 Kbps
Channel(s) : 2 channels
Channel positions : Front: L R
Sampling rate : 48.0 KHz
Bit depth : 16 bits
Compression mode : Lossy
Stream size : 71.6 MiB (7%)
Alignment : Split accross interleaves
Interleave, duration : 42 ms (1.00 video frame)
Interleave, preload duration : 500 ms
Title : Amedia
Audio #4
ID : 4
Format : AC-3
Format/Info : Audio Coding 3
Mode extension : CM (complete main)
Format settings, Endianness : Big
Codec ID : 2000
Duration : 52mn 9s
Bit rate mode : Constant
Bit rate : 192 Kbps
Channel(s) : 2 channels
Channel positions : Front: L R
Sampling rate : 48.0 KHz
Bit depth : 16 bits
Compression mode : Lossy
Stream size : 71.6 MiB (7%)
Alignment : Split accross interleaves
Interleave, duration : 42 ms (1.00 video frame)
Interleave, preload duration : 500 ms
Title : Original

Скриншоты



Последний раз редактировалось: emilsky (2015-06-24 15:27), всего редактировалось 1 раз

Создавать темы 19-Июн-2015 06:40

[Профиль]  [ЛС] 

emilsky ®

Стаж: 7 лет 4 месяца

Сообщений: 2237

Симпатии: 610

5ый сезон полностью!

Создавать темы 19-Июн-2015 06:40

[Профиль]  [ЛС] 

AZIZ97

Стаж: 5 лет 2 месяца

Сообщений: 199

Симпатии: 22

скорсть плиз дайте ребят

Создавать темы 02-Июл-2015 17:20

[Профиль]  [ЛС] 

saidali

Стаж: 5 лет 9 месяцев

Сообщений: 868

Симпатии: 554

Восьмой сезон «Игры престолов» станет заключительным

Создавать темы 08-Авг-2015 13:55

[Профиль]  [ЛС] 

Sugar

Стаж: 6 лет 9 месяцев

Сообщений: 24

Есть кто нибудь на раздаче?? уже неделю жду((

Создавать темы 15-Май-2016 21:17

[Профиль]  [ЛС] 

Maksimus

Стаж: 1 год 6 месяцев

Сообщений: 5

кто на раздачеееееееее

Создавать темы 21-Сен-2016 21:40

[Профиль]  [ЛС] 
Показать сообщения:    
Ответить на тему

Текущее время: 22-Ноя 18:08

Часовой пояс: UTC + 5



Вы не можете начинать темы
Вы не можете отвечать на сообщения
Вы не можете редактировать свои сообщения
Вы не можете удалять свои сообщения
Вы не можете голосовать в опросах
Вы не можете прикреплять файлы к сообщениям
Вы не можете скачивать файлы