Трейссеры / Traces (Даниэль Бенмаур) [2015, CША, Боевик, HDRip] (DVO)

Ответить на тему
 

Fine ®

Стаж: 5 лет 6 месяцев

Сообщений: 19

Симпатии: 36

Трейссеры/ Traces Страна: CША
Жанр: Боевик
Год выпуска: 2015
Продолжительность: 1:28:20 Перевод: Любительский (двухголосый закадровый)
Cубтитры: нет
Режиссер: Даниэль Бенмаур
В ролях: Мари Авгеропулос, Тейлор Лотнер, Рафи Гаврон, Адам Рэйнер, Сэм Медина, Лучиано Акуна мл., Доа Моа, Скотт Джонсен, Эндрю Элвис Миллер, Даг Драклер
У Кэма работа не его мечты. Он курьер на велосипеде, а из-за низкой зарплаты попал в долги некоторым криминальным элементам. Как то выполняя очередной заказ, Кэм на большой скорости попадает в мини-аварию и сбивает молодую и привлекательную девушку. Она открывает ему свой мир, тот о котором Кэм и не догадывался, мир паркура. Девушка приводит его в свою команду паркуристов. Парень всё больше увлекается этим видом спорта, однако деньги ему тоже нужны и он кроме паркура погружается в мир насилия, увязая в нём всё больше.
Качество видео: HDRip
Формат видео: AVI
5.283 2165 Видео: XviD,4:3,23,976 кадра/сек,973 Кбит/сек, Кбит/с,640x480,23.976 fps,1801 kbps
Аудио: Dolby AC3 44100Hz stereo 128kbps [A: ac3, 44100 Hz, stereo, 128 kb/s]

MediaInfo

General
Complete name : D:\KINO\Фильмы\Кино\Трейссеры 2015.avi
Format : AVI
Format/Info : Audio Video Interleave
File size : 702 MiB
Duration : 1h 28mn
Overall bit rate : 1 111 Kbps
Writing application : VirtualDubMod 1.5.10.3 | www.virtualdub-fr.org || (build 2550/release)
Writing library : VirtualDubMod build 2550/release
Video
ID : 0
Format : MPEG-4 Visual
Format profile : Advanced [email protected]
Format settings, BVOP : Yes
Format settings, QPel : No
Format settings, GMC : No warppoints
Format settings, Matrix : Custom
Codec ID : XVID
Codec ID/Hint : XviD
Duration : 1h 28mn
Bit rate : 973 Kbps
Width : 640 pixels
Height : 480 pixels
Display aspect ratio : 4:3
Frame rate : 23.976 fps
Color space : YUV
Chroma subsampling : 4:2:0
Bit depth : 8 bits
Scan type : Progressive
Compression mode : Lossy
Bits/(Pixel*Frame) : 0.132
Stream size : 615 MiB (88%)
Writing library : XviD 73
Audio
ID : 1
Format : AC-3
Format/Info : Audio Coding 3
Mode extension : CM (complete main)
Format settings, Endianness : Big
Codec ID : 2000
Duration : 1h 28mn
Bit rate mode : Constant
Bit rate : 128 Kbps
Channel(s) : 2 channels
Channel positions : Front: L R
Sampling rate : 44.1 KHz
Bit depth : 16 bits
Compression mode : Lossy
Stream size : 80.9 MiB (12%)
Alignment : Split accross interleaves
Interleave, duration : 42 ms (1.00 video frame)
Interleave, preload duration : 500 ms


Последний раз редактировалось: Fine (2015-06-21 11:23), всего редактировалось 12 раз(а)

Создавать темы 19-Июн-2015 09:28

[Профиль]  [ЛС] 

Каротажник

Стаж: 4 года 2 месяца

Сообщений: 195

Симпатии: 211

Fine, размер постера должна быть не больше 400х500 px
залейте скриншоты в Галерею вот ссылка http://img.tas-ix.net/
допишите расширения кадра
Видео: разрешение кадра (в пикселях), значение видеобитрейта (kbps) и частота кадров в секунду (fps) (пример720х304 , 23.976 fps, 1773 Kbps )

Создавать темы 19-Июн-2015 14:00

[Профиль]  [ЛС] 

Fine ®

Стаж: 5 лет 6 месяцев

Сообщений: 19

Симпатии: 36

941164Fine, размер постера должна быть не больше 400х500 px
залейте скриншоты в Галерею вот ссылка http://img.tas-ix.net/
допишите расширения кадра
Видео: разрешение кадра (в пикселях), значение видеобитрейта (kbps) и частота кадров в секунду (fps) (пример720х304 , 23.976 fps, 1773 Kbps )
В вашей галерее идут профилактические работы , а видео я дополню

Создавать темы 19-Июн-2015 15:54

[Профиль]  [ЛС] 

Каротажник

Стаж: 4 года 2 месяца

Сообщений: 195

Симпатии: 211

Fine, можно залить http://img.uz/

Создавать темы 20-Июн-2015 05:50

[Профиль]  [ЛС] 

Fine ®

Стаж: 5 лет 6 месяцев

Сообщений: 19

Симпатии: 36

Раздача будет с 8 до 12 и с вечера до 0:00

Создавать темы 21-Июн-2015 08:35

[Профиль]  [ЛС] 

timmm

Стаж: 5 лет 11 месяцев

Сообщений: 12

Симпатии: 4

что то на скринах качество картинки какое-то смазанное, я думал, что при качестве HDRip более четкое изображение должно быть. Само видео при воспроизведении тоже так выглядит смазано?

Создавать темы 23-Июн-2015 13:25

[Профиль]  [ЛС] 

Fine ®

Стаж: 5 лет 6 месяцев

Сообщений: 19

Симпатии: 36

941726что то на скринах качество картинки какое-то смазанное, я думал, что при качестве HDRip более четкое изображение должно быть. Само видео при воспроизведении тоже так выглядит смазано?
Так получались скрины , незнаю в чем причина , а фильм в нормальном качестве...

Создавать темы 23-Июн-2015 14:08

[Профиль]  [ЛС] 

timawow1

Стаж: 7 лет

Сообщений: 59

Симпатии: 32

941731
941726что то на скринах качество картинки какое-то смазанное, я думал, что при качестве HDRip более четкое изображение должно быть. Само видео при воспроизведении тоже так выглядит смазано?
Так получались скрины , незнаю в чем причина , а фильм в нормальном качестве...
У меня была похожая проблема с 1-м релизом td помогла по кадровая про мотка видео. Некоторые видео кодеки в видео плеерах при обы4ном скриншоте если видео идёт или была нажата пауза при нажатии кнопки скриншота автоматом проматывают видео на 1-2 кадра в момент снимка из за этого и полу4ается такая вот смазанная картинка cb

Создавать темы 14-Июл-2015 20:51

[Профиль]  [ЛС] 
Показать сообщения:    
Ответить на тему

Текущее время: 18-Дек 12:00

Часовой пояс: UTC + 5



Вы не можете начинать темы
Вы не можете отвечать на сообщения
Вы не можете редактировать свои сообщения
Вы не можете удалять свои сообщения
Вы не можете голосовать в опросах
Вы не можете прикреплять файлы к сообщениям
Вы не можете скачивать файлы