Звездная карта / Maps to the Stars (Дэвид Кроненберг / David Cronenberg) [2014, Канада, Германия, Франция, США, драма, комедия, BDRip-AVC] (MVO : R5) (Sub Rus + Original Eng)

Ответить на тему
 

boburalim ®

Стаж: 4 года 11 месяцев

Сообщений: 20

Симпатии: 3

Звездная карта / Maps to the Stars
Страна: Канада, Германия, Франция, США
Жанр: драма, комедия
Год выпуска: 2014
Продолжительность: 1:47:17
Перевод: Профессиональный (многоголосый закадровый) Доп. инфо о переводе R5
Cубтитры: русские
Оригинальная аудиодорожка: английский
Режиссер: Дэвид Кроненберг / David Cronenberg
В ролях: Джулианна Мур, Миа Васиковска, Оливия Уильямс, Эван Бёрд, Сара Гадон, Нив Уилсон, Доун Гринхалг, Джон Кьюсак, Роберт Паттинсон, Кьяра Гласко
Описание: Место действия — два голливудских дома. В одном живет стареющая актриса, которая надеется сыграть роль собственной давно погибшей матери — легенды черно-белого кино. Другой особняк — резиденция сверхуспешного психотерапевта, его жены и их сына — 13-летнего миллионера, наркомана и звезды. В оба дома проникает девушка из Флориды, которая подружилась в твиттере с Кэрри Фишер и надеется с ее помощью покорить Лос-Анджелес.
Качество видео: BDRip-AVC
Формат видео: MKV
Видео: AVC, 720 x 388 (1,85:1), 2060 kbps, 25,000 fps, 0.295 bpp
Аудио: AC3, 6ch, 48 kHz, 448 kbps, 16 bit
Аудио 2: AC3, 6ch, 48 kHz, 384 kbps, 16 bit
Формат субтитров: softsub (SRT)
 

MediaInfo

Уникальный идентификатор : 198675638972970651953455733526113811277 (0x957789467D420AC18AAC835FE663FB4D)
Полное имя : F:\Films\Star_map\720х\Star_map.mkv
Формат : Matroska
Версия формата : Version 4 / Version 2
Размер файла : 2,17 Гбайт
Продолжительность : 1 ч. 47 м.
Общий поток : 2890 Кбит/сек
Дата кодирования : UTC 2015-06-07 02:21:23
Программа кодирования : mkvmerge v7.7.0 ('Six Voices') 64bit built on Feb 28 2015 23:39:33
Библиотека кодирования : libebml v1.3.1 + libmatroska v1.4.2
_STATISTICS_WRITING_APP : mkvmerge v7.7.0 ('Six Voices') 64bit built on Feb 28 2015 23:39:33
_STATISTICS_WRITING_DATE_UTC : 2015-06-07 02:21:23
_STATISTICS_TAGS : BPS DURATION NUMBER_OF_FRAMES NUMBER_OF_BYTES
DURATION : 01:40:14.199000000
NUMBER_OF_FRAMES : 1759
NUMBER_OF_BYTES : 84627
Видео
Идентификатор : 1
Формат : AVC
Формат/Информация : Advanced Video Codec
Профиль формата : [email protected]
Параметр CABAC формата : Да
Параметр ReFrames формата : 8 кадров
Идентификатор кодека : V_MPEG4/ISO/AVC
Продолжительность : 1 ч. 47 м.
Битрейт : 2060 Кбит/сек
Ширина : 720 пикселей
Высота : 388 пикселей
Соотношение сторон : 1,85:1
Соотношение сторон в оригинале : 1,85:1
Режим частоты кадров : Постоянный
Частота кадров : 25,000 кадров/сек
Цветовое пространство : YUV
Субдискретизация насыщенности : 4:2:0
Битовая глубина : 8 бит
Тип развёртки : Прогрессивная
Бит/(Пиксели*Кадры) : 0.295
Размер потока : 1,50 Гбайт (69%)
Библиотека кодирования : x264 core 142 r2431 ac76440
Настройки программы : cabac=1 / ref=8 / deblock=1:-2:-1 / analyse=0x3:0x133 / me=umh / subme=9 / psy=1 / psy_rd=1.00:0.05 / mixed_ref=0 / me_range=36 / chroma_me=1 / trellis=2 / 8x8dct=1 / cqm=0 / deadzone=21,11 / fast_pskip=0 / chroma_qp_offset=-3 / threads=4 / lookahead_threads=1 / sliced_threads=0 / nr=0 / decimate=0 / interlaced=0 / bluray_compat=0 / constrained_intra=0 / bframes=12 / b_pyramid=2 / b_adapt=2 / b_bias=0 / direct=1 / weightb=1 / open_gop=0 / weightp=2 / keyint=250 / keyint_min=25 / scenecut=40 / intra_refresh=0 / rc=2pass / mbtree=0 / bitrate=2060 / ratetol=1.0 / qcomp=0.65 / qpmin=10 / qpmax=69 / qpstep=4 / cplxblur=20.0 / qblur=0.5 / ip_ratio=1.40 / pb_ratio=1.30 / aq=1:1.00
Default : Да
Forced : Нет
Аудио #1
Идентификатор : 2
Формат : AC-3
Формат/Информация : Audio Coding 3
Расширение режима : CM (complete main)
Параметр Endianness формата : Big
Идентификатор кодека : A_AC3
Продолжительность : 1 ч. 47 м.
Вид битрейта : Постоянный
Битрейт : 448 Кбит/сек
Каналы : 6 каналов
Расположение каналов : Front: L C R, Side: L R, LFE
Частота : 48,0 КГц
Битовая глубина : 16 бит
Метод сжатия : С потерями
Размер потока : 344 Мбайт (16%)
Заголовок : Русский многоголосый, R5
Язык : Russian
Default : Да
Forced : Нет
Аудио #2
Идентификатор : 3
Формат : AC-3
Формат/Информация : Audio Coding 3
Расширение режима : CM (complete main)
Параметр Endianness формата : Big
Идентификатор кодека : A_AC3
Продолжительность : 1 ч. 47 м.
Вид битрейта : Постоянный
Битрейт : 384 Кбит/сек
Каналы : 6 каналов
Расположение каналов : Front: L C R, Side: L R, LFE
Частота : 48,0 КГц
Битовая глубина : 16 бит
Метод сжатия : С потерями
Размер потока : 295 Мбайт (13%)
Заголовок : Английский
Язык : English
Default : Нет
Forced : Нет
Текст
Идентификатор : 4
Формат : UTF-8
Идентификатор кодека : S_TEXT/UTF8
Идентификатор кодека/Информация : UTF-8 Plain Text
Заголовок : Русские
Язык : Russian
Default : Нет
Forced : Нет
Меню
00:00:00.000 : en:00:00:00.000
00:08:32.320 : en:00:08:32.320
00:20:37.800 : en:00:20:37.800
00:29:15.080 : en:00:29:15.080
00:40:17.520 : en:00:40:17.520
00:50:31.360 : en:00:50:31.360
00:59:57.000 : en:00:59:57.000
01:08:47.600 : en:01:08:47.600
01:19:54.640 : en:01:19:54.640
01:27:56.640 : en:01:27:56.640
01:35:10.680 : en:01:35:10.680
01:41:22.320 : en:01:41:22.320

Скриншот c названием фильма

Скриншоты



Создавать темы 19-Июн-2015 20:04

[Профиль]  [ЛС] 

ildarf1

Стаж: 3 года 10 месяцев

Сообщений: 71

Симпатии: 9

Дайте скоростиИИИ

Создавать темы 19-Июн-2015 23:50

[Профиль]  [ЛС] 

Davron1402

Стаж: 3 года 7 месяцев

Сообщений: 136

Симпатии: 122

Год выпуска: 2014
не тут раздел

Создавать темы 20-Июн-2015 00:37

[Профиль]  [ЛС] 

Топик был перенесен из форума Фильмы за 2015 в форум Фильмы за 2014
mp1988

Создавать темы 21-Июн-2015 20:55

 
Показать сообщения:    
Ответить на тему

Текущее время: 22-Авг 06:35

Часовой пояс: UTC + 5



Вы не можете начинать темы
Вы не можете отвечать на сообщения
Вы не можете редактировать свои сообщения
Вы не можете удалять свои сообщения
Вы не можете голосовать в опросах
Вы не можете прикреплять файлы к сообщениям
Вы не можете скачивать файлы