Хищник: Темные века / Predator Dark Ages (Джеймс Буш) [2015, Великобритания / Big Sis Productions, Dark Age Productions, Fascination Pictures, Короткометражный, Фантастика, Боевик, WEB-DLRip] (VO)

Страницы :  1, 2  След.

Ответить на тему
 

Сергей74 ®

Стаж: 2 года 4 месяца

Сообщений: 211

Симпатии: 293

Хищник: Темные века / Predator Dark Ages (2015,WEB-DLRip)
Страна: Великобритания / Big Sis Productions, Dark Age Productions, Fascination Pictures
Жанр: Короткометражный, Фантастика, Боевик
Год выпуска: 2015
Продолжительность: 00:27:18
Перевод: Одноголосый закадровый
Cубтитры: нет
Режиссер: Джеймс Буш
В ролях: Адриан Буше, Амед Хашими, Сабина Кроссен, Бен Лойд-Холмс, Джон Кэмплинг, Джо Иган, Филип Лейн, Девид Годдард, Джордж Ньютон, Брайан Хэндс
Описание: Группе рыцарей-тамплиеров, вернувшихся из восточных земель в Англию, поручают новое задание.Найти зверя, который убивает местных жителей.В помощь им дают врага-сарацина, который уже встречался с этим дьяволом.
Доп. информация: Дата мировой премьеры: 25 мая 2015
Релиз от: FAGOT100 pic (NNM-CLUB) http://nnm-club.me/forum/viewtopic.php?t=910198
Перевод: Одноголосый закадровый, любительский
Озвучка / Автор перевода: Хихикающий доктор

Качество видео: WEB-DLRip
Формат видео: MKV
Видео: AVC, 1024x426 (2.40:1), 24.000 fps, 1 903 Kbps (0.182 bit/pixel)
Аудио: AC-3, 44.1 KHz, 2 ch, 192 Kbps, CBR

MediaInfo

Формат : Matroska
Версия формата : Version 2
Размер файла : 417 Мбайт
Продолжительность : 27 м.
Общий поток : 2137 Кбит/сек
Дата кодирования : UTC 2015-06-19 14:01:20
Программа кодирования : mkvmerge v5.3.0 ('I could have danced') built on Feb 9 2012 10:38:07
Библиотека кодирования : libebml v1.2.3 + libmatroska v1.3.0
Attachment : Yes
Видео
Идентификатор : 1
Формат : AVC
Формат/Информация : Advanced Video Codec
Профиль формата : [email protected]
Параметр CABAC формата : Да
Параметр ReFrames формата : 10 кадров
Идентификатор кодека : V_MPEG4/ISO/AVC
Продолжительность : 27 м.
Битрейт : 1903 Кбит/сек
Ширина : 1024 пикселя
Высота : 426 пикселей
Соотношение сторон : 2,40:1
Режим частоты кадров : Постоянный
Частота кадров : 24,000 кадра/сек
Цветовое пространство : YUV
Субдискретизация насыщенности : 4:2:0
Битовая глубина : 8 бит
Тип развёртки : Прогрессивная
Бит/(Пиксели*Кадры) : 0.182
Размер потока : 372 Мбайт (89%)
Библиотека кодирования : x264 core 146 r2538 121396c
Настройки программы : cabac=1 / ref=10 / deblock=1:-2:-2 / analyse=0x3:0x133 / me=umh / subme=10 / psy=1 / psy_rd=1.00:0.00 / mixed_ref=1 / me_range=32 / chroma_me=1 / trellis=2 / 8x8dct=1 / cqm=0 / deadzone=21,11 / fast_pskip=1 / chroma_qp_offset=-2 / threads=12 / lookahead_threads=2 / sliced_threads=0 / nr=0 / decimate=0 / interlaced=0 / bluray_compat=0 / constrained_intra=0 / bframes=8 / b_pyramid=2 / b_adapt=2 / b_bias=0 / direct=3 / weightb=1 / open_gop=0 / weightp=2 / keyint=240 / keyint_min=24 / scenecut=40 / intra_refresh=0 / rc=crf / mbtree=0 / crf=17.5 / qcomp=0.60 / qpmin=0 / qpmax=69 / qpstep=4 / ip_ratio=1.40 / pb_ratio=1.30 / aq=1:1.00
Язык : English
Default : Да
Forced : Нет
Аудио
Идентификатор : 2
Формат : AC-3
Формат/Информация : Audio Coding 3
Расширение режима : CM (complete main)
Параметр Endianness формата : Big
Идентификатор кодека : A_AC3
Продолжительность : 27 м.
Вид битрейта : Постоянный
Битрейт : 192 Кбит/сек
Каналы : 2 канала
Расположение каналов : Front: L R
Частота : 44,1 КГц
Битовая глубина : 16 бит
Метод сжатия : С потерями
Размер потока : 37,5 Мбайт (9%)
Default : Да
Forced : Нет

Скриншот c названием фильма

Скриншоты






Последний раз редактировалось: Сергей74 (2015-06-20 20:48), всего редактировалось 1 раз

Создавать темы 20-Июн-2015 20:32

[Профиль]  [ЛС] 

Сергей74 ®

Стаж: 2 года 4 месяца

Сообщений: 211

Симпатии: 293

канал на отдачу у меня до 1000 KB/s но от меня смогут качать только те, у кого белый ай пи или установлен ТЕРЕДО ... установите его и будет Вам счастье.. всем пользователям UZONLINE обязательно надо ТЕРЕДО
сделал видеоурок Как включить TEREDO TAS-IX.ORG (новичкам) для пользователей Windows 7 ,uTorrent - > https://tas-ix.net/viewtopic.php?t=107160 устанавливать с правами администратора

Создавать темы 20-Июн-2015 20:47

[Профиль]  [ЛС] 

Топик был перенесен из форума CamRip, DVDScr и т.п. в форум Фильмы за 2015
Grock

Создавать темы 20-Июн-2015 21:22

 

mars751

Стаж: 5 лет 4 месяца

Сообщений: 227

Симпатии: 113

Создавать темы 20-Июн-2015 22:16

[Профиль]  [ЛС] 

manutd27

Стаж: 2 года 5 месяцев

Сообщений: 36

Симпатии: 24

кто нить видит такой ip: manutd27.ddns.net?

Создавать темы 21-Июн-2015 13:01

[Профиль]  [ЛС] 

Сергей74 ®

Стаж: 2 года 4 месяца

Сообщений: 211

Симпатии: 293

941452кто нить видит такой ip: manutd27.ddns.net?
я не вижу...сейчас вижу только 1)тередо 2001.... и 2) 89.146..... и 3) 91.212.....

Создавать темы 21-Июн-2015 13:34

[Профиль]  [ЛС] 

manutd27

Стаж: 2 года 5 месяцев

Сообщений: 36

Симпатии: 24

dial.dyn.comnet эт ваш?

Создавать темы 21-Июн-2015 13:40

[Профиль]  [ЛС] 

Manson

Стаж: 7 лет 2 месяца

Сообщений: 92

Симпатии: 19

Блин, по-ходу муть какая-то. Но из-за хищника качаю...

Создавать темы 21-Июн-2015 14:26

[Профиль]  [ЛС] 

[email protected]

Стаж: 6 лет 3 месяца

Сообщений: 139

Симпатии: 29

фуфло

Создавать темы 21-Июн-2015 14:31

[Профиль]  [ЛС] 

abatova.n

Стаж: 3 года 9 месяцев

Сообщений: 16

Симпатии: 6

фуфло есть am скорость кот наплакл как taхsiкоман(д)ов

Создавать темы 21-Июн-2015 20:28

[Профиль]  [ЛС] 

Сергей74 ®

Стаж: 2 года 4 месяца

Сообщений: 211

Симпатии: 293

manutd27, нет у меня 91....

Создавать темы 22-Июн-2015 18:27

[Профиль]  [ЛС] 

Jassa

Стаж: 4 года 4 месяца

Сообщений: 21

Симпатии: 6

хищник уже не тот !!!

Создавать темы 22-Июн-2015 18:45

[Профиль]  [ЛС] 

kiborg911

Стаж: 6 лет 6 месяцев

Сообщений: 58

Симпатии: 3

Кто еще смотрел,отпишитесь как фильм,а то по скринам полный отстой

Создавать темы 22-Июн-2015 23:46

[Профиль]  [ЛС] 

Manson

Стаж: 7 лет 2 месяца

Сообщений: 92

Симпатии: 19

941670Кто еще смотрел,отпишитесь как фильм,а то по скринам полный отстой
Так и есть, лажа полная

Создавать темы 23-Июн-2015 01:13

[Профиль]  [ЛС] 

SkoroXod

Стаж: 1 год 11 месяцев

Сообщений: 99

Симпатии: 78

А мне понравился фильм. Конечно, сразу видно, что снимали любители. Но зато качество звука и видео, а так же игра актёров на высоком уровне. И сценарий тоже не плохой.

Создавать темы 18-Сен-2015 20:28

[Профиль]  [ЛС] 
Показать сообщения:    
Ответить на тему

Текущее время: 17-Авг 08:40

Часовой пояс: UTC + 5



Вы не можете начинать темы
Вы не можете отвечать на сообщения
Вы не можете редактировать свои сообщения
Вы не можете удалять свои сообщения
Вы не можете голосовать в опросах
Вы не можете прикреплять файлы к сообщениям
Вы не можете скачивать файлы