Omoide no Marnie/ Воспоминания Марни [BDRip 720p] 2014 [Movie] [Без хардсаба] [RUS+JAP(int)] [драма, мистика]

Ответить на тему
 

FireHowler ®

Стаж: 4 года 5 месяцев

Сообщений: 270

Симпатии: 153

- Производство: Япония
Жанр: драма, мистика
Тип: полнометражный фильм, 103 мин.
Премьера: 19.07.2014
Студия: Studio Ghibli
Режиссер: Хиромаса Ёнэбаяси
Автор оригинала: Джоан Робинсон-Описание: Фильм снят по мотивам одноимённой книги английской писательницы Джоан Дж. Робинсон.
Двенадцатилетняя Анна - замкнутая и необщительная девочка. У неё нет друзей, и единственная отдушина — это рисование. Из-за слабого здоровья Анну отправляют на лето в небольшой городок в Хоккайдо. Там она встречает Марни — девочку, живущую в большом богатом доме на отмели. Постепенно они становятся хорошими подругами. Эта дружба помогает Анне примириться с собой и окружающим миром. Но кто же такая Марни?- 
-Продолжительность: 01:42
Качество: BDRip
Формат: MKV
Видео: Н264, 10bit, 1280x692, 2864 kbps, 23, 976 fps
Аудио1: AC3, 48000Hz, 5ch, 448 Kbps Язык Русский (в составе контейнера)
Аудио2: AC3, 48000Hz, 5ch, 448 Kbps Язык Японский
Субтитры: нет-

Media Info

Video
ID : 1
Format : AVC
Format/Info : Advanced Video Codec
Format profile : High 10@L5
Format settings, CABAC : Yes
Format settings, ReFrames : 16 frames
Codec ID : V_MPEG4/ISO/AVC
Duration : 1h 42mn
Bit rate : 2 864 Kbps
Width : 1 280 pixels
Height : 692 pixels
Display aspect ratio : 1.85:1
Frame rate mode : Constant
Frame rate : 23.976 fps
Color space : YUV
Chroma subsampling : 4:2:0
Bit depth : 10 bits
Scan type : Progressive
Bits/(Pixel*Frame) : 0.135
Stream size : 2.05 GiB (75%)
Writing library : x264 core 133 r2334 a3ac64b
Encoding settings : cabac=1 / ref=16 / deblock=1:-1:-1 / analyse=0x3:0x133 / me=umh / subme=10 / psy=1 / psy_rd=1.00:0.00 / mixed_ref=1 / me_range=24 / chroma_me=1 / trellis=2 / 8x8dct=1 / cqm=0 / deadzone=21,11 / fast_pskip=0 / chroma_qp_offset=-2 / threads=12 / lookahead_threads=3 / sliced_threads=0 / nr=0 / decimate=1 / interlaced=0 / bluray_compat=0 / constrained_intra=0 / bframes=10 / b_pyramid=2 / b_adapt=2 / b_bias=0 / direct=3 / weightb=1 / open_gop=0 / weightp=2 / keyint=250 / keyint_min=23 / scenecut=40 / intra_refresh=0 / rc_lookahead=60 / rc=crf / mbtree=1 / crf=15.0 / qcomp=0.60 / qpmin=0 / qpmax=81 / qpstep=4 / ip_ratio=1.40 / aq=2:1.00
Default : Yes
Forced : No
Audio #1
ID : 2
Format : AC-3
Format/Info : Audio Coding 3
Mode extension : CM (complete main)
Format settings, Endianness : Big
Codec ID : A_AC3
Duration : 1h 42mn
Bit rate mode : Constant
Bit rate : 448 Kbps
Channel(s) : 6 channels
Channel positions : Front: L C R, Side: L R, LFE
Sampling rate : 48.0 KHz
Compression mode : Lossy
Stream size : 329 MiB (12%)
Title : [FassaD]
Language : Russian
Default : Yes
Forced : No
Audio #2
ID : 3
Format : AC-3
Format/Info : Audio Coding 3
Mode extension : CM (complete main)
Format settings, Endianness : Big
Codec ID : A_AC3
Duration : 1h 42mn
Bit rate mode : Constant
Bit rate : 448 Kbps
Channel(s) : 5 channels
Channel positions : Front: L C R, Side: L R
Sampling rate : 48.0 KHz
Compression mode : Lossy
Stream size : 329 MiB (12%)
Language : Japanese
Default : No
Forced : No

Скриншоты




Создавать темы 21-Июн-2015 10:51

[Профиль]  [ЛС] 

Sarashiki

Стаж: 2 года 7 месяцев

Сообщений: 85

Симпатии: 56

https://tas-ix.net/viewtopic.php?t=105156

Создавать темы 26-Июн-2015 11:13

[Профиль]  [ЛС] 

FireHowler ®

Стаж: 4 года 5 месяцев

Сообщений: 270

Симпатии: 153

Ошибочка, желающие скачать переходите туда.

Создавать темы 26-Июн-2015 20:29

[Профиль]  [ЛС] 
Показать сообщения:    
Ответить на тему

Текущее время: 23-Окт 09:33

Часовой пояс: UTC + 5



Вы не можете начинать темы
Вы не можете отвечать на сообщения
Вы не можете редактировать свои сообщения
Вы не можете удалять свои сообщения
Вы не можете голосовать в опросах
Вы не можете прикреплять файлы к сообщениям
Вы не можете скачивать файлы