Век Адалин / The Age of Adaline (Ли Толанд Кригер) [2015, США, Драма, Мелодрамма, HDRip] (Dub)

Ответить на тему
 

Fine ®

Стаж: 5 лет 3 месяца

Сообщений: 19

Симпатии: 36

Век Адалин / The Age of Adaline
Страна: США
Жанр: Драма , Мелодрамма
Год выпуска: 2015
Продолжительность: 01:52:43
Перевод: Профессиональный (дублированный)
Cубтитры: нет
Режиссер: Ли Толанд Кригер
В ролях: Блейк Лайвли, Михил Хаушман, Кэти Бейкер, Харрисон Форд, Эллен Бёрстин, Аманда Крю, Ричард Хэрмон, Анджали Джай, Энтони Инграбер, Линда Бойд. Что такое настоящая любовь? И сколько времени нужно для того, чтобы полюбить? Иногда на это хватает нескольких месяцев, а иногда не хватает и целой жизни… Адалин – обычная девушка, у которой все идет как у всех, встреча с человеком, замужество, рождение любимого ребенка, кажись вот оно счастье. Один случай меняет все – ночь, дождь, дорога, и мост, с которого она слетает в реку… В ту ночь случилось то, что не объясняется наукой или здравым смыслом, Адалин приобрела бессмертие… И вот оно – бессмертие, то, о чем мечтает чуть ли не каждый человек. Она живет уже сто лет, она видела, как умер ее муж, как состарилась ее дочь, и как идет и меняется жизнь. Но вот даже ста прожитых лет не хватило для того, чтобы полюбить по настоящему. В ее жизни были мужчины, и были те, с кем она была по настоящему счастлива, но разве страсть, желание, заботу, внимание, привязанность можно назвать любовью? Нет! И вот в ее жизни появился он – человек, с которым Адалин хочет прожить всю жизнь и состариться вместе. И тогда ее бессмертие стало для нее проклятьем, которое мешает быть счастливой…
Качество видео: HDRip
Формат видео: AVI
Видео: MPEG4, 640x360 24fps 768kbps
Аудио: AAC 44100Hz 6ch 127kbps
Формат субтитров: softsub (SRT) детям до 13 лет просмотр не желателен

MediaInfo

General
Complete name : D:\KINO\Фильмы\Кино\Век Адалин.
Format : MPEG-4
Format profile : Base Media
Codec ID : isom
File size : 726 MiB
Duration : 1h 52mn
Overall bit rate : 901 Kbps
Encoded date : UTC 2015-05-24 12:16:02
Tagged date : UTC 2015-05-24 12:16:02
Video
ID : 2
Format : AVC
Format/Info : Advanced Video Codec
Format profile : [email protected]
Format settings, CABAC : No
Format settings, ReFrames : 1 frame
Codec ID : avc1
Codec ID/Info : Advanced Video Coding
Duration : 1h 52mn
Bit rate : 768 Kbps
Width : 640 pixels
Height : 360 pixels
Display aspect ratio : 16:9
Frame rate mode : Constant
Frame rate : 24.000 fps
Color space : YUV
Chroma subsampling : 4:2:0
Bit depth : 8 bits
Scan type : Progressive
Bits/(Pixel*Frame) : 0.139
Stream size : 619 MiB (85%)
Writing library : њ
Language : English
Audio
ID : 1
Format : AAC
Format/Info : Advanced Audio Codec
Format profile : LC
Codec ID : 40
Duration : 1h 52mn
Bit rate mode : Constant
Bit rate : 128 Kbps
Channel(s) : 6 channels
Channel positions : Front: L C R, Side: L R, LFE
Sampling rate : 44.1 KHz
Compression mode : Lossy
Stream size : 103 MiB (14%)
Language : English

Скриншоты





Последний раз редактировалось: Fine (2015-06-22 06:21), всего редактировалось 1 раз

Создавать темы 21-Июн-2015 22:59

[Профиль]  [ЛС] 

Fine ®

Стаж: 5 лет 3 месяца

Сообщений: 19

Симпатии: 36

Создавать темы 22-Июн-2015 16:46

[Профиль]  [ЛС] 

Quality

Стаж: 7 лет 2 месяца

Сообщений: 55

Симпатии: 3

чет размер всего лишь 726(((

Создавать темы 23-Июн-2015 14:19

[Профиль]  [ЛС] 

Fine ®

Стаж: 5 лет 3 месяца

Сообщений: 19

Симпатии: 36

941733чет размер всего лишь 726(((
Хмм , а какой тебе нужен ?? Или что то не так в этих числах

Создавать темы 24-Июн-2015 00:02

[Профиль]  [ЛС] 

AZIZ97

Стаж: 5 лет

Сообщений: 199

Симпатии: 22

раздачу плиз

Создавать темы 01-Июл-2015 12:35

[Профиль]  [ЛС] 

edgemza

Стаж: 6 лет 4 месяца

Сообщений: 191

Симпатии: 7

ВОПРОС СНЯТ! Оказывается здесь вообще формат mp4

(Про звук кто-нибудь может сказать? Случайно там нет местами звук с кинотеатра?)

Создавать темы 13-Сен-2015 14:46

[Профиль]  [ЛС] 
Показать сообщения:    
Ответить на тему

Текущее время: 25-Сен 18:19

Часовой пояс: UTC + 5



Вы не можете начинать темы
Вы не можете отвечать на сообщения
Вы не можете редактировать свои сообщения
Вы не можете удалять свои сообщения
Вы не можете голосовать в опросах
Вы не можете прикреплять файлы к сообщениям
Вы не можете скачивать файлы