Хоббит и Несносный Супердед / The Hobbit: The Desolation of Smaug (Питер Джексон, Гном Пасаран) [2015, США, пародия, комедия, фантастика, фэнтэзи, HDRip] (MVO)

Ответить на тему
 

Fine ®

Стаж: 5 лет 5 месяцев

Сообщений: 19

Симпатии: 36

Хоббит и Несносный Супердед/The Hobbit: The Desolation of Smaug- Страна: США
Жанр: пародия, комедия, фантастика, фэнтэзи
Год выпуска: 2015
Продолжительность: 01:40:12
Перевод: Любительский (многоголосый закадровый)
Cубтитры: нет
Режиссер: Питер Джексон, Гном Пасаран
В ролях: Мартин Фриман, Иэн МакКеллен, Ричард Армитедж, Джеймс Несбитт, Кен Стотт, Грэм МакТавиш, Уильям Кирчер, Стивен Хантер, Дин О’Горман, Эйдан Тернер Смешной перевод фильма "Хоббит: Пустошь Смауга".
Поход к Дырявой горе продолжается. Супердед больше не верит в существование термоядерного динозавра, но не унывает — ему подворачивается новый способ вернуться на Землю с опостылевшей Пандоры. Правда, этот способ может вылезти боком всей захолустной планетке. А то и всей Вселенной — ведь Супердед никогда не пасовал перед масштабами своих бессмысленных и беспощадных подвигов.
--Продолжение смешного перевода "Хоббит с татуировкой дракона" от студии deBohpodast'. Фильм монтажный - в видеоряд вместилась только первая половина "Пустоши Смауга".--Качество видео: HDRip
Формат видео: AVI--Видео: XviD, 720x304 (2.37:1), 23.976 fps, ~ 2185 kbps
Аудио: MP3, 48 kHz, 2 ch, 192 kbps | deBohpodast'

MediaInfo

General
Complete name : D:\KINO\Фильмы\Кино\Hobbit.i.Nesnosnsy.Superded.2015.HDRip.avi
Format : AVI
Format/Info : Audio Video Interleave
File size : 1.67 GiB
Duration : 1h 40mn
Overall bit rate : 2 387 Kbps
Writing application : VirtualDubMod 1.5.10.2 (build 2540/release)
Writing library : VirtualDubMod build 2540/release
Video
ID : 0
Format : MPEG-4 Visual
Format profile : Advanced [email protected]
Format settings, BVOP : Yes
Format settings, QPel : No
Format settings, GMC : No warppoints
Format settings, Matrix : Default (MPEG)
Codec ID : XVID
Codec ID/Hint : XviD
Duration : 1h 40mn
Bit rate : 2 186 Kbps
Width : 720 pixels
Height : 304 pixels
Display aspect ratio : 2.35:1
Frame rate : 23.976 fps
Color space : YUV
Chroma subsampling : 4:2:0
Bit depth : 8 bits
Scan type : Progressive
Compression mode : Lossy
Bits/(Pixel*Frame) : 0.417
Stream size : 1.53 GiB (92%)
Writing library : XviD 64
Audio
ID : 1
Format : MPEG Audio
Format version : Version 1
Format profile : Layer 3
Codec ID : 55
Codec ID/Hint : MP3
Duration : 1h 40mn
Bit rate mode : Constant
Bit rate : 192 Kbps
Channel(s) : 2 channels
Sampling rate : 48.0 KHz
Compression mode : Lossy
Stream size : 138 MiB (8%)
Alignment : Aligned on interleaves
Interleave, duration : 42 ms (1.00 video frame)
Interleave, preload duration : 504 ms

Скриншот c названием фильма

Скриншоты





Создавать темы 22-Июн-2015 19:28

[Профиль]  [ЛС] 

axeman

Стаж: 5 лет

Сообщений: 380

Симпатии: 50

Че за фильм ?

Создавать темы 23-Июн-2015 13:12

[Профиль]  [ЛС] 

Fine ®

Стаж: 5 лет 5 месяцев

Сообщений: 19

Симпатии: 36

941724Че за фильм ?
Пародия к фильму Хоббит ...
Советую посмотреть !) ag

Создавать темы 23-Июн-2015 13:21

[Профиль]  [ЛС] 

HeroOfLove

Стаж: 4 года 6 месяцев

Сообщений: 6

Мда.. Портят шедевры и не краснеют..

Создавать темы 23-Июн-2015 14:35

[Профиль]  [ЛС] 

manutd27

Стаж: 2 года 8 месяцев

Сообщений: 36

Симпатии: 24

не удачная пародия

Создавать темы 23-Июн-2015 21:16

[Профиль]  [ЛС] 

Fine ®

Стаж: 5 лет 5 месяцев

Сообщений: 19

Симпатии: 36

941735Мда.. Портят шедевры и не краснеют..
Да ладно тебе, пародия нормальная )))

Создавать темы 24-Июн-2015 00:03

[Профиль]  [ЛС] 

mars751

Стаж: 5 лет 7 месяцев

Сообщений: 227

Симпатии: 113

941799не удачная пародия
согласен с тобой. бред какой-то.

Создавать темы 24-Июн-2015 06:12

[Профиль]  [ЛС] 

mggrom

Стаж: 2 года 8 месяцев

Сообщений: 4

Симпатии: 1

кино не очём бред

Создавать темы 24-Июн-2015 20:45

[Профиль]  [ЛС] 

iceblade

Стаж: 5 лет

Сообщений: 38

Симпатии: 2

а мне скорости не помешает=)

Создавать темы 01-Янв-2016 05:01

[Профиль]  [ЛС] 

iceblade

Стаж: 5 лет

Сообщений: 38

Симпатии: 2

СКОРОСТИ

Создавать темы 01-Янв-2016 05:02

[Профиль]  [ЛС] 

death

Стаж: 5 лет 8 месяцев

Сообщений: 39

а чё гоблин прощёлкал хоббита чтоли?

Создавать темы 09-Янв-2016 19:33

[Профиль]  [ЛС] 

uzabcd

Стаж: 7 лет 3 месяца

Сообщений: 26

Симпатии: 2

Гоблин недавно небольшой отрывок кинул, он че то там собирал деньги на перевод.
Че то там ходка зад-вназад, был еще кусок на его сайте, где встреча Хоббита с Голым в пещере.

Создавать темы 11-Янв-2016 14:28

[Профиль]  [ЛС] 
Показать сообщения:    
Ответить на тему

Текущее время: 23-Ноя 01:13

Часовой пояс: UTC + 5



Вы не можете начинать темы
Вы не можете отвечать на сообщения
Вы не можете редактировать свои сообщения
Вы не можете удалять свои сообщения
Вы не можете голосовать в опросах
Вы не можете прикреплять файлы к сообщениям
Вы не можете скачивать файлы