Однажды (Ренат Давлетьяров) [2015, Комедия, приключения, HDRip]

Ответить на тему
 

Fine ®

Стаж: 5 лет 4 месяца

Сообщений: 19

Симпатии: 36

Однажды
Жанр: Комедия, приключения
Год выпуска: 2015
Продолжительность: 01:41:06
Страна:Россия --Режиссёр:Ренат Давлетьяров, Александр Котелевский, Григорий Подземельный
Бюджет: $4 500 000
Бюджет в : $256 172
В ролях:Дарья Мельникова, Юрий Дейнекин, Никита Калинин (II), Александр Мельников (IV), Михаил Тройник, Полина Муравьева, Сергей Гармаш, Кристина Бабушкина, Андрей Мерзликин, Станислав Говорухин, Алена Каримская, Фархат Абдраимов, Елизавета Боярская, Дмитрий Астрахан, Артур Мухамадияров, Сергей Тишин-- Однажды Лешка понял, что влюблен. В бывшую девушку брата. Ему еще не было и 16-ти, а ей уже исполнилось 17. Она носила очень короткую юбку и ходила гулять с ребятами из другого района. Впереди у Лешки был последний звонок, последний год жизни в городке и первое серьезное испытание. Он согласился с Таней на пари: проигравший обязан исполнить любое желание победителя…-- Рейтинги 6.675 (457 голосов)--
Детям до 16 лет просмотр не желателен.--Качество видеo: HDRip
Формат видео: AVI--Видео: XViD,1542 Кбит/с, 720x304
Аудио: AC3,384 kb/s (6 ch)--

MediaInfo

General
Complete name : D:\KINO\Фильмы\Кино\Odnazhdy.2015.WEB-DLRip_MyTorrents.uz.avi
Format : AVI
Format/Info : Audio Video Interleave
File size : 1.37 GiB
Duration : 1h 41mn
Overall bit rate : 1 935 Kbps
Writing application : VirtualDubMod 1.5.10.2 (build 2540/release)
Writing library : VirtualDubMod build 2540/release
Video
ID : 0
Format : MPEG-4 Visual
Format profile : Advanced [email protected]
Format settings, BVOP : Yes
Format settings, QPel : No
Format settings, GMC : No warppoints
Format settings, Matrix : Default (MPEG)
Codec ID : XVID
Codec ID/Hint : XviD
Duration : 1h 41mn
Bit rate : 1 542 Kbps
Width : 720 pixels
Height : 304 pixels
Display aspect ratio : 2.35:1
Frame rate : 24.000 fps
Color space : YUV
Chroma subsampling : 4:2:0
Bit depth : 8 bits
Scan type : Progressive
Compression mode : Lossy
Bits/(Pixel*Frame) : 0.294
Stream size : 1.09 GiB (80%)
Writing library : XviD 1.2.1 (UTC 2008-12-04)
Audio
ID : 1
Format : AC-3
Format/Info : Audio Coding 3
Mode extension : CM (complete main)
Format settings, Endianness : Big
Codec ID : 2000
Duration : 1h 41mn
Bit rate mode : Constant
Bit rate : 384 Kbps
Channel(s) : 6 channels
Channel positions : Front: L C R, Side: L R, LFE
Sampling rate : 48.0 KHz
Bit depth : 16 bits
Compression mode : Lossy
Stream size : 278 MiB (20%)
Alignment : Split accross interleaves
Interleave, duration : 42 ms (1.00 video frame)
Interleave, preload duration : 500 ms

Скриншоты




Создавать темы 22-Июн-2015 20:53

[Профиль]  [ЛС] 
Показать сообщения:    
Ответить на тему

Текущее время: 23-Окт 07:13

Часовой пояс: UTC + 5



Вы не можете начинать темы
Вы не можете отвечать на сообщения
Вы не можете редактировать свои сообщения
Вы не можете удалять свои сообщения
Вы не можете голосовать в опросах
Вы не можете прикреплять файлы к сообщениям
Вы не можете скачивать файлы