Колодец / The Well (Томас С. Хэммок) [2014, США, Боевик, триллер, ужасы, WEB-DLRip] (VO)

Ответить на тему
 

Davron1402 ®

Стаж: 3 года 7 месяцев

Сообщений: 136

Симпатии: 122

Колодец / The Well- Страна: США
Жанр: Боевик, триллер, ужасы
Год выпуска: 2014
Продолжительность: 01:34:48
Перевод: Одноголосый закадровый
Cубтитры: нет
Режиссер: Томас С. Хэммок
В ролях: Хейли Лу Ричардсон, Бу Бу Стюарт, Макс Чарльз, Николь Арианна Фокс, Майкл Уэлш, Джон Грайз, Майкл Масси, Рина Оуэн, Лео Ли, Барбара Крэмптон
Описание: Пост-апокалиптический триллер о ближайшем будущем. Пресная вода, самый ценный товар, закончилась. Жадный до воды барон, определяет, кому жить, а кому умереть. Героиня Кендал, храбрая 17-летняя девушка, встает на пути этого злодея....-
Качество видео: WEB-DLRip
Формат видео: mp4 (MPEG-4)
Видео: AVC, 720 x 304 (2.35:1), 24.000 fps, 769 Kbps
Аудио: AAC, 48.0 KHz, 2 channels, 128 Kbps
- 

MediaInfo

Имя файла: Колодец The Well 2014.mp4
Формат файла: .mp4 (MPEG-4)
Размер файла: 611.14 MB
Длительность: 1h 34mn
Навигация по главам: Нет
Bitrate (все потоки): 901 Kbps
Файл создан...: UTC 2015-06-13 15:58:39
Название: Колодец The Well 2014
Тип потока: Видео
Длительность: 01:34:48
Кодек: AVC
Кодек/Профиль: [email protected]
Кодек/ID: avc1
Кодек/CABAC: No
Кодек/ReFrames: 1 frame
Размеры изображения: 720 x 304 (2.35:1)
Частота кадров: 24.000 fps
Размер потока: 522 MiB (85%)
Битрейт: 769 Kbps
Цветовое пространство: YUV
Тип развёртки: Progressive
Глубина: 8 bits
Тип потока: Звук #1
Язык: English
Длительность: 01:34:48.298
Кодек: AAC
Кодек/Профиль: LC
Кодек/ID: 40
Частота дискретизации: 48.0 KHz
Каналов: 2 channels
Битрейт: 128 Kbps
Битрейт/тип: Constant
Размер потока: 86.8 MiB (14%)
Метод сжатия: Lossy

Скриншоты




Создавать темы 22-Июн-2015 22:35

[Профиль]  [ЛС] 

Davron1402 ®

Стаж: 3 года 7 месяцев

Сообщений: 136

Симпатии: 122

Когда работает галерея?

Создавать темы 22-Июн-2015 22:42

[Профиль]  [ЛС] 
Показать сообщения:    
Ответить на тему

Текущее время: 24-Авг 04:27

Часовой пояс: UTC + 5



Вы не можете начинать темы
Вы не можете отвечать на сообщения
Вы не можете редактировать свои сообщения
Вы не можете удалять свои сообщения
Вы не можете голосовать в опросах
Вы не можете прикреплять файлы к сообщениям
Вы не можете скачивать файлы