Самоволка-72 / AWOL-72 (Кристиан Сесма) [2015, США, Триллер, DVDRip] (VO) (Sub)

Ответить на тему
 

Davron1402 ®

Стаж: 3 года 7 месяцев

Сообщений: 136

Симпатии: 122

Самоволка-72 / AWOL-72- Страна: США
Жанр: Триллер
Год выпуска: 2015
Продолжительность: 01:19:13
Перевод: Одноголосый закадровый
Cубтитры: Нидерландские
Режиссер: Кристиан Сесма
В ролях: Люк Госс, RZA, Букем Вудбайн, Брук Ньютон, Луис Мэндилор, Хезер Руп, Мирта Мишель, Лейф Гантвурт, Марко Хэнлиэн, Джуллиса Линн
Описание: Солдата морской пехоты, владеющего секретной информацией, преследует русский спецназ, полиция Лос-Анджелеса и опасный убийца…-Качество видео: DVDRip
Формат видео: mp4 (MPEG-4)
Видео: AVC, 1024 x 424 (2.40:1), 25.000 fps, 2 409 Kbps
Аудио: AAC, 44.1 KHz, 2 channels, 152 Kbps- 

MediaInfo

Имя файла: Самоволка-72 AWOL-72.DVDRip.mp4
Формат файла: .mp4 (MPEG-4)
Размер файла: 1.42 GB
Длительность: 1h 19mn
Навигация по главам: Нет
Bitrate (все потоки): 2 565 Kbps
Тип битрейта (все потоки): Variable
Название: AWOL72 2015 from ExKinoRay
Тип потока: Видео
Длительность: 01:19:13
Кодек: AVC
Кодек/Профиль: [email protected]
Кодек/ID: avc1
Кодек/CABAC: No
Кодек/ReFrames: 1 frame
Размеры изображения: 1024 x 424 (2.40:1)
Частота кадров: 25.000 fps
Размер потока: 1.33 GiB (94%)
Битрейт: 2 409 Kbps
Цветовое пространство: YUV
Тип развёртки: Progressive
Глубина: 8 bits
Тип потока: Звук #1
Язык: Russian
Длительность: 01:19:13.288
Кодек: AAC
Кодек/Профиль: LC
Кодек/ID: 40
Частота дискретизации: 44.1 KHz
Каналов: 2 channels
Битрейт: 152 Kbps
Битрейт/тип: Variable
Размер потока: 86.1 MiB (6%)
Метод сжатия: Lossy

Скриншоты





Создавать темы 23-Июн-2015 23:10

[Профиль]  [ЛС] 

timawow1

Стаж: 6 лет 9 месяцев

Сообщений: 59

Симпатии: 32

Ска4авшие отпишитесь пожалуйста))) А то описание к фильму не слишком обнадёживает) Задумался ска4ивать или нет)

Создавать темы 14-Июл-2015 20:42

[Профиль]  [ЛС] 

elmar

Стаж: 6 лет 7 месяцев

Сообщений: 44

Симпатии: 4

ерунда

Создавать темы 19-Июл-2015 09:49

[Профиль]  [ЛС] 
Показать сообщения:    
Ответить на тему

Текущее время: 23-Авг 19:05

Часовой пояс: UTC + 5



Вы не можете начинать темы
Вы не можете отвечать на сообщения
Вы не можете редактировать свои сообщения
Вы не можете удалять свои сообщения
Вы не можете голосовать в опросах
Вы не можете прикреплять файлы к сообщениям
Вы не можете скачивать файлы