За кулисами / Beyond the Lights (Джина Принс-Байтвуд) [2014, США, драма, музыка, ..., HDRip][Чистый звук]

Ответить на тему
 

Каротажник ®

Стаж: 3 года 10 месяцев

Сообщений: 195

Симпатии: 211

За кулисами / Beyond the Lights Страна: США
Жанр: драма, музыка, ...
Год выпуска: 2014--Продолжительность: 01:56:32
Перевод: Дублированный [Чистый звук] официальное--Режиссер: Джина Принс-Байтвуд
В ролях: Гугу Эмбата-Ро, Нэйт Паркер, Минни Драйвер, Дэнни Гловер, Машин Ган Келли, Дэррил Стефенс, Илэйн Тан, Исаак Кис, Тайлер Кристофер, Бенито Мартинес--Описание: Молодая талантливая певица сталкивается с давлением от обретенной славы и успеха...-- 
--Качество видео: HDRip
Формат видео: AVI
Видео: Xvid 720x400 23.976fps 1285kbps
Аудио: AC3 48000Hz stereo 384kbps

MediaInfo

Format : AVI
Format/Info : Audio Video Interleave
File size : 1.37 GiB
Duration : 1h 56mn
Overall bit rate : 1 679 Kbps
Writing application : VirtualDubMod 1.5.10.2 (build 2540/release)
Writing library : VirtualDubMod build 2540/release
Video
ID : 0
Format : MPEG-4 Visual
Format profile : Advanced [email protected]
Format settings, BVOP : Yes
Format settings, QPel : No
Format settings, GMC : No warppoints
Format settings, Matrix : Default (MPEG)
Codec ID : XVID
Codec ID/Hint : XviD
Duration : 1h 56mn
Bit rate : 1 286 Kbps
Width : 720 pixels
Height : 400 pixels
Display aspect ratio : 16:9
Frame rate : 23.976 fps
Color space : YUV
Chroma subsampling : 4:2:0
Bit depth : 8 bits
Scan type : Progressive
Compression mode : Lossy
Bits/(Pixel*Frame) : 0.186
Stream size : 1.05 GiB (77%)
Writing library : XviD 1.2.1 (UTC 2008-12-04)
Audio
ID : 1
Format : AC-3
Format/Info : Audio Coding 3
Mode extension : CM (complete main)
Format settings, Endianness : Big
Codec ID : 2000
Duration : 1h 56mn
Bit rate mode : Constant
Bit rate : 384 Kbps
Channel(s) : 2 channels
Channel positions : Front: L R
Sampling rate : 48.0 KHz
Bit depth : 16 bits
Compression mode : Lossy
Stream size : 320 MiB (23%)
Alignment : Split accross interleaves
Interleave, duration : 42 ms (1.00 video frame)
Interleave, preload duration : 500 ms

Скриншоты


Создавать темы 24-Июн-2015 12:07

[Профиль]  [ЛС] 
Показать сообщения:    
Ответить на тему

Текущее время: 20-Авг 07:22

Часовой пояс: UTC + 5



Вы не можете начинать темы
Вы не можете отвечать на сообщения
Вы не можете редактировать свои сообщения
Вы не можете удалять свои сообщения
Вы не можете голосовать в опросах
Вы не можете прикреплять файлы к сообщениям
Вы не можете скачивать файлы