Безумный Макс: Дорога ярости (Джордж Миллер) [2015, Австралия, США, фантастика, боевик, триллер, приключения, WEB-DLRip] (AVO : [Алексей Матвеев])

Ответить на тему
 

RecobaZico ®

Стаж: 2 года 6 месяцев

Сообщений: 22

Симпатии: 94

Mad Max: Fury Road / Безумный Макс: Дорога ярости Страна: Австралия, США / Kennedy Miller Productions, Village Roadshow Pictures, Village Roadshow Pictures
Жанр: фантастика, боевик, триллер, приключения
Год выпуска: 2015
Продолжительность: 02:00:21-Перевод: Авторский (одноголосый закадровый) [Алексей Матвеев]
Cубтитры: нет
Режиссер: Джордж Миллер-В ролях: Том Харди, Шарлиз Терон, Николас Холт, Хью Кияс-Бёрн, Джош Хелман, Нэйтан Джонс, Зои Кравиц, Роузи Хантингтон-Уайтли, Райли Кио, Эбби Ли-Описание: Вскоре после отмщения за смерть жены и сына, Макс Рокатански покинул ряды «Основного силового патруля» и уехал в глушь, где скитается в одиночестве, пока мир медленно падает в последствии нефтяного кризиса и глобальной войны. Не имея ничего, кроме своей машины «Перехватчик», Максу предстоит научиться, как выжить в пост-апокалиптической пустоши и сражаться с жестокими, безжалостными воинами, которые населяют её...-Рейтинги:
 -Качество видео: WEB-DLRip
Формат видео: AVI-Видео: XviD, 1550 Кбит/с, 720x304
Аудио: AC3, 2 ch, 128 Кбит/с

MediaInfo

Location: D:\Рекоба2015\Mad Max Fury Road.avi
Filename: Mad Max Fury Road.avi
File format: .avi (AVI)
File size: 1.41 GB
Duration: 2h 0mn
Navigate by chapters: Nope
Bitrate (all streams): 1 678 Kbps
...with: VirtualDubMod 1.5.10.2 (build 2540/release)
...by using: VirtualDubMod build 2540/release
Title: Mad Max Fury Road
Stream type: Video
Duration: 02:00:21
Codec: MPEG-4 Visual
Codec Profile: Advanced [email protected]
Codec ID: XVID
Video Size: 720 x 304 (2.35:1)
Frame rate: 23.976 fps
Stream size: 1.29 GiB (92%)
Bitrate: 1 540 Kbps
Codec library: XviD 73
Colorspace: YUV
Scantype: Progressive
Bitdepth: 8 bits
Stream type: Audio #1
Duration: 02:00:21.173
Codec: AC-3
Codec ID: 2000
Samplerate: 44.1 KHz
Channels: 2 channels
Bitrate: 128 Kbps
Bitrate/Mode: Constant
Stream size: 110 MiB (8%)
Bitdepth: 16 bits
Compression mode: Lossy

Скриншот c названием фильма

Скриншоты



Создавать темы 24-Июн-2015 17:34

[Профиль]  [ЛС] 
Показать сообщения:    
Ответить на тему

Текущее время: 18-Ноя 17:16

Часовой пояс: UTC + 5



Вы не можете начинать темы
Вы не можете отвечать на сообщения
Вы не можете редактировать свои сообщения
Вы не можете удалять свои сообщения
Вы не можете голосовать в опросах
Вы не можете прикреплять файлы к сообщениям
Вы не можете скачивать файлы