Безумный Макс: Дорога ярости / Mad Max: Fury Road (Джордж Миллер) [2015, Австралия, США, фантастика, боевик, триллер, приключения, WEB-DL (1080p)] (VO : [Алексей Матвеев ака Doctor Joker]) (Original Eng)

Ответить на тему
 

ScorpiuS ®

Стаж: 6 лет 11 месяцев

Сообщений: 206

Симпатии: 122

Безумный Макс: Дорога ярости / Mad Max: Fury Road- Страна: Австралия, США
Жанр: фантастика, боевик, триллер, приключения
Год выпуска: 2015
Продолжительность: 02:00:21-Перевод: Одноголосый закадровый [Алексей Матвеев ака Doctor Joker]
Cубтитры: нет
Оригинальная аудиодорожка: английский-Режиссер: Джордж Миллер-В ролях: Том Харди, Шарлиз Терон, Николас Холт, Хью Кияс-Бёрн, Джош Хелман, Нэйтан Джонс, Зои Кравиц, Роузи Хантингтон-Уайтли, Райли Кио, Эбби Ли-Описание: Вскоре после отмщения за смерть жены и сына, Макс Рокатански покинул ряды «Основного силового патруля» и уехал в глушь, где скитается в одиночестве, пока мир медленно падает в последствии нефтяного кризиса и глобальной войны. Не имея ничего, кроме своей машины «Перехватчик», Максу предстоит научиться, как выжить в пост-апокалиптической пустоши и сражаться с жестокими, безжалостными воинами, которые населяют её...- 
-Качество видео: WEB-DL (1080p)
Формат видео: MKV
Видео: MPEG-4 AVC, 4351 Кбит/с, 1912x792
Аудио: Русский, английский (AC3, 6 ch, 384 Кбит/с)

MediaInfo

General
Unique ID : 254106424740289726971770182291584126832 (0xBF2B1E03E3BCAEC2A9E19F9751370F70)
Complete name : D:ГОТОВЫЕ ФИЛЬМЫMad Max Fury Road 2015 WEB-DL 1080p.mkv
Format : Matroska
Format version : Version 2
File size : 4.38 GiB
Duration : 2h 0mn
Overall bit rate : 5 215 Kbps
Movie name : Mad.Max.Fury.Road.2015.1080p.WEB-DL.DD5.1.H264-RARBG
Encoded date : UTC 2015-06-23 13:06:26
Writing application : mkvmerge v3.4.0 ('Rapunzel') сборка от May 15 2010 09:38:20
Writing library : libebml v0.8.0 + libmatroska v0.9.0
Attachment : Yes / Yes / Yes / Yes
Video
ID : 1
Format : AVC
Format/Info : Advanced Video Codec
Format profile : [email protected]
Format settings, CABAC : Yes
Format settings, ReFrames : 5 frames
Codec ID : V_MPEG4/ISO/AVC
Duration : 2h 0mn
Bit rate : 4 343 Kbps
Width : 1 912 pixels
Height : 792 pixels
Display aspect ratio : 2.40:1
Frame rate mode : Constant
Frame rate : 23.976 fps
Color space : YUV
Chroma subsampling : 4:2:0
Bit depth : 8 bits
Scan type : Progressive
Bits/(Pixel*Frame) : 0.120
Stream size : 3.65 GiB (83%)
Title : Mad.Max.Fury.Road.2015.1080p.WEB-DL.DD5.1.H264-RARBG
Language : English
Default : No
Forced : No
Color primaries : BT.709
Transfer characteristics : BT.709
Matrix coefficients : BT.709
Audio #1
ID : 2
Format : AC-3
Format/Info : Audio Coding 3
Mode extension : CM (complete main)
Format settings, Endianness : Big
Codec ID : A_AC3
Duration : 2h 0mn
Bit rate mode : Constant
Bit rate : 384 Kbps
Channel(s) : 6 channels
Channel positions : Front: L C R, Side: L R, LFE
Sampling rate : 48.0 KHz
Bit depth : 16 bits
Compression mode : Lossy
Stream size : 331 MiB (7%)
Language : Russian
Default : No
Forced : No
Audio #2
ID : 3
Format : AC-3
Format/Info : Audio Coding 3
Mode extension : CM (complete main)
Format settings, Endianness : Big
Codec ID : A_AC3
Duration : 2h 0mn
Bit rate mode : Constant
Bit rate : 384 Kbps
Channel(s) : 6 channels
Channel positions : Front: L C R, Side: L R, LFE
Sampling rate : 48.0 KHz
Bit depth : 16 bits
Compression mode : Lossy
Stream size : 331 MiB (7%)
Language : English
Default : No
Forced : No
Text
ID : 4
Format : UTF-8
Codec ID : S_TEXT/UTF8
Codec ID/Info : UTF-8 Plain Text
Language : English
Default : No
Forced : No
Menu
00:00:00.000 : en:1
00:10:42.000 : en:2
00:19:06.000 : en:3
00:30:13.000 : en:4
00:42:55.000 : en:5
00:49:33.000 : en:6
00:59:55.000 : en:7
01:13:02.000 : en:8
01:22:08.000 : en:9
01:30:02.000 : en:10
01:40:39.000 : en:11
01:49:12.000 : en:12
01:53:05.000 : en:13

Скриншоты




Создавать темы 25-Июн-2015 08:35

[Профиль]  [ЛС] 

kozim

Стаж: 6 лет 8 месяцев

Сообщений: 39

Симпатии: 4

Фильм улет ваше

Создавать темы 09-Июл-2015 18:29

[Профиль]  [ЛС] 
Показать сообщения:    
Ответить на тему

Текущее время: 20-Авг 03:38

Часовой пояс: UTC + 5



Вы не можете начинать темы
Вы не можете отвечать на сообщения
Вы не можете редактировать свои сообщения
Вы не можете удалять свои сообщения
Вы не можете голосовать в опросах
Вы не можете прикреплять файлы к сообщениям
Вы не можете скачивать файлы