Золото Маккены (Джон Ли Томпсон / J. Lee Thompson) [1969, вестерн, DVDRip] Профессиональный (полное дублирование, "Мосфильм")

Ответить на тему
 

фазилов ®

Стаж: 3 года 6 месяцев

Сообщений: 310

Симпатии: 344

ЗОЛОТО МАККЕНЫ ( (полное дублирование, "Мосфильм")
Жанр: Вестерн
Страна : США
Год выпуска: 1969
Продолжительность: 02:02:50
Режиссёр: Джон Ли Томпсон / J. Lee Thompson
В ролях: Грегори Пек (Маккена, озвучивает Владимир Дружников), Омар Шариф (Колорадо, озвучивает Анатолий Кузнецов), Телли Савалас (серажнт Тиббс,озвучивает А. Соловьёв), Эли Уоллах (Бен Бейкер, озвучивает Алексей Алексеев), Джули Ньюмар (Хешке), Ли Дж. Кобб (редактор, озвучивает С.Курилов), Энтони Куэйл (англичанин, озвучивает Г. Юдин), Бёрджес Мередит (лавочник), Эдвард Дж. Робинсон, , Камилла Спарв (Инга, озвучивает А. Кончакова), Раймонд Мэсси (проповедник, Я. БеленькиЙ), Тед Кэссиди (Хачита)

Описание: Шериф Маккена случайно узнаёт о том, где спрятано золото индейцев племени Апачи. В качестве "живой карты" он взят в заложники бандитом Колорадо, который со своей бандой и разношерстным людом, жаждущим богатства и приключений, ведёт охоту за этим золотом
Доп. информация: Один из шедевров мирового кинематографа, который и в СССР стал одним из любимых фильмов, не в последнюю очередь благодаря великолепному дубляжу от "Мосфильма", который сам по себе представляет произведение искусства, и песне в исполнении Валерия Ободзинского (русский текст Леонида Дербенёва). На экранах Советского Союза фильм появился в 1974 году.
Видеоряд дополнительно очищен от фоновых шумов.
Качество видео: DVDRip
Формат видео: AVI
Видео: 720x304 (2.37:1), 25 fps, DivX Codec 5.x or 6.x ~1426 kbps avg, 0.26 bit/pixelАудио №1: советский дубляж, 44.100 kHz, MPEG Layer 3, 2 ch, 128.00 kbps avg
Аудио №2: английский, 44.100 kHz, MPEG Layer 3, 2 ch, 128.00 kbps avg

MediaInfo

General
Complete name : D:\Мои релизы\Золото Маккены_ avi.avi
Format : AVI
Format/Info : Audio Video Interleave
File size : 1.46 GiB
Duration : 2h 2mn
Overall bit rate : 1 698 Kbps
Video
ID : 0
Format : MPEG-4 Visual
Format settings, BVOP : 2
Format settings, QPel : No
Format settings, GMC : No warppoints
Format settings, Matrix : Default (MPEG)
Muxing mode : Packed bitstream
Codec ID : DX50
Codec ID/Hint : DivX 5
Duration : 2h 2mn
Bit rate : 1 428 Kbps
Width : 720 pixels
Height : 304 pixels
Display aspect ratio : 2.35:1
Frame rate : 25.000 fps
Color space : YUV
Chroma subsampling : 4:2:0
Bit depth : 8 bits
Scan type : Progressive
Compression mode : Lossy
Bits/(Pixel*Frame) : 0.261
Stream size : 1.23 GiB (84%)
Writing library : DivX 6.8.3-6.8.4 (UTC 2008-06-07)
Audio #1
ID : 1
Format : MPEG Audio
Format version : Version 1
Format profile : Layer 3
Mode : Joint stereo
Mode extension : MS Stereo
Codec ID : 55
Codec ID/Hint : MP3
Duration : 2h 2mn
Source duration : 2h 2mn
Bit rate mode : Constant
Bit rate : 128 Kbps
Channel(s) : 2 channels
Sampling rate : 44.1 KHz
Compression mode : Lossy
Stream size : 112 MiB (8%)
Alignment : Aligned on interleaves
Interleave, duration : 40 ms (1.00 video frame)
Writing library : LAME3.97a
Encoding settings : -m j -V 4 -q 2 -lowpass 17.5 -b 128
Audio #2
ID : 2
Format : MPEG Audio
Format version : Version 1
Format profile : Layer 3
Mode : Joint stereo
Codec ID : 55
Codec ID/Hint : MP3
Duration : 2h 2mn
Source duration : 2h 2mn
Bit rate mode : Constant
Bit rate : 128 Kbps
Channel(s) : 2 channels
Sampling rate : 44.1 KHz
Compression mode : Lossy
Stream size : 112 MiB (8%)
Alignment : Aligned on interleaves
Interleave, duration : 40 ms (1.00 video frame)
Writing library : LAME3.97a
Encoding settings : -m j -V 4 -q 2 -lowpass 17.5 -b 128

Скриншоты







Последний раз редактировалось: фазилов (2015-06-26 09:12), всего редактировалось 5 раз(а)

Создавать темы 25-Июн-2015 14:24

[Профиль]  [ЛС] 

фазилов ®

Стаж: 3 года 6 месяцев

Сообщений: 310

Симпатии: 344

Поспешил-людей насмешил. Как теперь перенести релиз сюда
https://tas-ix.net/viewforum.php?f=445 ???

Создавать темы 25-Июн-2015 14:47

[Профиль]  [ЛС] 

фазилов ®

Стаж: 3 года 6 месяцев

Сообщений: 310

Симпатии: 344

На треккере идут плановые проф. работы и хостинг изображений пока недоступен. Завтра дооформлю. au
Дооформил релиз. ab


Последний раз редактировалось: фазилов (2015-06-26 10:37), всего редактировалось 1 раз

Создавать темы 25-Июн-2015 19:47

[Профиль]  [ЛС] 

Топик был перенесен из форума Кинематограф СССР в форум Фильмы до 2010
Grock

Создавать темы 26-Июн-2015 10:36

 

фазилов ®

Стаж: 3 года 6 месяцев

Сообщений: 310

Симпатии: 344

Опять не туда попал.- российское кино. Сюда его блудного https://tas-ix.net/viewforum.php?f=445

Создавать темы 26-Июн-2015 10:41

[Профиль]  [ЛС] 

Топик был перенесен из форума Фильмы до 2010 в форум Фильмы до 2010
Grock

Создавать темы 26-Июн-2015 10:51

 

Grock

Стаж: 6 лет 6 месяцев

Сообщений: 637

Симпатии: 113

фазилов, Спасибо zd Сегодня я сонный)

Создавать темы 26-Июн-2015 10:52

[Профиль]  [ЛС] 
Показать сообщения:    
Ответить на тему

Текущее время: 21-Авг 22:52

Часовой пояс: UTC + 5



Вы не можете начинать темы
Вы не можете отвечать на сообщения
Вы не можете редактировать свои сообщения
Вы не можете удалять свои сообщения
Вы не можете голосовать в опросах
Вы не можете прикреплять файлы к сообщениям
Вы не можете скачивать файлы