Дом Версаче / House of Versace (Сара Шугарман) [2013, Канада, драма, биография, HDRip] (MVO)

Ответить на тему
 

Davron1402 ®

Стаж: 3 года 10 месяцев

Сообщений: 136

Симпатии: 122

Дом Версаче / House of Versace- Страна: Канада
Жанр: драма, биография
Год выпуска: 2013
Продолжительность: 01:28:20
Перевод: Профессиональный (многоголосый закадровый)
Cубтитры: нет
Режиссер: Сара Шугарман
В ролях: Джина Гершон, Энрико Колантони, Колм Фиор, Донна Мерфи, Алекс Картер, Samantha Hodhod, Стефано Коласитти, Ян Инглэнд, Рэкел Уэлч, Клаудия Бессо
Описание: После смерти в 1997 году Джанни Версаче, его сестра Донателла Версаче должна справиться с наркозависимостью и потерей интереса к брэнду ради спасения семейного предприятия от банкротства.-Качество видео: HDRip
Формат видео: AVI
Видео: Xvid, 720 x 400 (16:9), 23.976 fps, 2 012 Kbps
Аудио: AC-3, 48.0 KHz, 2 channels, 192 Kbps- 

MediaInfo

Имя файла: Dom.Versa4i.2013.P.HDRip.avi
Формат файла: .avi (AVI)
Размер файла: 1.37 GB
Длительность: 1h 28mn
Навигация по главам: Нет
Bitrate (все потоки): 2 214 Kbps
Название: Dom.Versa4i.2013.P.HDRip
Тип потока: Видео
Длительность: 01:28:20
Кодек: MPEG-4 Visual
Кодек/Профиль: Advanced [email protected]
Кодек/ID: XVID
Размеры изображения: 720 x 400 (16:9)
Частота кадров: 23.976 fps
Размер потока: 1.24 GiB (91%)
Битрейт: 2 012 Kbps
Библиотека кодирования: XviD 1.2.1 (UTC 2008-12-04)
Цветовое пространство: YUV
Тип развёртки: Progressive
Глубина: 8 bits
Тип потока: Звук #1
Длительность: 01:28:20.387
Кодек: AC-3
Кодек/ID: 2000
Частота дискретизации: 48.0 KHz
Каналов: 2 channels
Битрейт: 192 Kbps
Битрейт/тип: Constant
Размер потока: 121 MiB (9%)
Глубина: 16 bits
Метод сжатия: Lossy

Скриншоты






Последний раз редактировалось: Davron1402 (2015-06-26 07:53), всего редактировалось 1 раз

Создавать темы 25-Июн-2015 23:11

[Профиль]  [ЛС] 
Показать сообщения:    
Ответить на тему

Текущее время: 18-Ноя 06:05

Часовой пояс: UTC + 5



Вы не можете начинать темы
Вы не можете отвечать на сообщения
Вы не можете редактировать свои сообщения
Вы не можете удалять свои сообщения
Вы не можете голосовать в опросах
Вы не можете прикреплять файлы к сообщениям
Вы не можете скачивать файлы