Форс-мажоры / Suits / Сезон: 5 / Серии: 1-10 (16) (Кевин Брэй, Джон Скотт) [2015, драма, WEB-DLRip] DVO (NewStudio)

Ответить на тему
 

PupuseG ®

Стаж: 5 лет 1 месяц

Сообщений: 514

Симпатии: 64

Форс-мажоры / Suits -Год выпуска: 2015
Страна: США | USA Network
Жанр: драма
Продолжительность: ~00:42:00
Перевод: двухголосый профессиональный закадровый NewStudio-Режиссёры: Кевин Брэй, Джон Скотт и др.
В ролях: Патрик Дж. Адамс, Гэбриел Махт, Меган Маркл, Джина Торрес, Рик Хоффман и др.-Описание: В центре сюжета замечательный, но немотивированный молодой человек, так и не закончивший учебу в колледже. У него есть все необходимые качества, чтобы стать хорошим адвокатом, кроме диплома. Но благодаря знаниям законов улицы и напористым, не всегда честным действиям его нанимает влиятельная юридическая фирма из Манхэттена.-Качество: WEB-DLRip
Формат: AVI
Видео: XviD, 720x400 (16:9), 23.976 fps, 1544 kbps, 0.223 bit/pixel
Аудио 1: MP3, 48 kHz, 2 ch, 128 kbps | Russian
Аудио 2: MP3, 48 kHz, 2 ch, 128 kbps | English- -

MediaInfo

Complete name : D:\Video\Сериалы\Форс-мажоры (сезон 5)\Suits.s05e01.WEBDLRip.NewStudio.TV.avi
Format : AVI
Format/Info : Audio Video Interleave
File size : 550 MiB
Duration : 42mn 23s
Overall bit rate : 1 814 Kbps
Writing application : VirtualDubMod 1.5.10.2 (build 2540/release)
Writing library : VirtualDubMod build 2540/release
Video
ID : 0
Format : MPEG-4 Visual
Format profile : Advanced [email protected]
Format settings, BVOP : 2
Format settings, QPel : No
Format settings, GMC : No warppoints
Format settings, Matrix : Default (MPEG)
Codec ID : XVID
Codec ID/Hint : XviD
Duration : 42mn 23s
Bit rate : 1 544 Kbps
Width : 720 pixels
Height : 400 pixels
Display aspect ratio : 16:9
Frame rate : 23.976 fps
Color space : YUV
Chroma subsampling : 4:2:0
Bit depth : 8 bits
Scan type : Progressive
Compression mode : Lossy
Bits/(Pixel*Frame) : 0.224
Stream size : 468 MiB (85%)
Writing library : XviD 73
Audio #1
ID : 1
Format : MPEG Audio
Format version : Version 1
Format profile : Layer 3
Mode : Joint stereo
Mode extension : MS Stereo
Codec ID : 55
Codec ID/Hint : MP3
Duration : 42mn 23s
Bit rate mode : Constant
Bit rate : 128 Kbps
Channel(s) : 2 channels
Sampling rate : 48.0 KHz
Compression mode : Lossy
Stream size : 38.8 MiB (7%)
Alignment : Aligned on interleaves
Interleave, duration : 42 ms (1.00 video frame)
Interleave, preload duratio : 504 ms
Audio #2
ID : 2
Format : MPEG Audio
Format version : Version 1
Format profile : Layer 3
Mode : Joint stereo
Mode extension : MS Stereo
Codec ID : 55
Codec ID/Hint : MP3
Duration : 42mn 23s
Bit rate mode : Constant
Bit rate : 128 Kbps
Channel(s) : 2 channels
Sampling rate : 48.0 KHz
Compression mode : Lossy
Stream size : 38.8 MiB (7%)
Alignment : Aligned on interleaves
Interleave, duration : 42 ms (1.00 video frame)
Interleave, preload duratio : 504 ms
Writing library : LAME3.99r
Encoding settings : -m j -V 4 -q 2 -lowpass 17 -b 128

Скриншоты




Раздача ведется путем добавления новых серий

Когда раздача ведётся путём добавления новых серий, при каждом добавлении создётся новый торрент. Чтобы начать докачку новой серии, пользователям необходимо сделать следующее:
(1) остановить скачивание,
(2) удалить старый торрент у себя из клиента (старые серии удалять не надо),
(3) скачать новый торрент и запустить его у себя в клиенте вместо старого, при этом указать клиенту путь в старую папку, куда и должно происходить скачивание новых серий.
Ваш клиент при этом должен произвести хеширование (проверку) старой папки (если не производит сам - помогите ему сделать это), и будет докачивать только те серии, которых у вас ещё нет. Старые серии при этом не удаляются, а продолжают раздаваться!
Eсли вы уже удалили старые серии, то предотвратить повторную закачку старых серий можно, отжав галочку в соответсвующих местах при запуске нового торрента. По возможности, желательно не удалять старые серии как можно дольше, чтобы релизёр не столько продолжал раздавать старые серии, а смог сконцентрироваться на новых.


Последний раз редактировалось: PupuseG (2015-08-28 01:20), всего редактировалось 10 раз(а)

Создавать темы 26-Июн-2015 00:57

[Профиль]  [ЛС] 

PupuseG ®

Стаж: 5 лет 1 месяц

Сообщений: 514

Симпатии: 64

2-я серия!

Создавать темы 03-Июл-2015 02:54

[Профиль]  [ЛС] 

PupuseG ®

Стаж: 5 лет 1 месяц

Сообщений: 514

Симпатии: 64

3-я серия!

Создавать темы 10-Июл-2015 15:51

[Профиль]  [ЛС] 

PupuseG ®

Стаж: 5 лет 1 месяц

Сообщений: 514

Симпатии: 64

4-я серия!

Комментарий от emilsky


Ух, систер Луиса из Подозреваемого - будет горячо)

Создавать темы 17-Июл-2015 01:52

[Профиль]  [ЛС] 

PupuseG ®

Стаж: 5 лет 1 месяц

Сообщений: 514

Симпатии: 64

Ух, систер Луиса из Подозреваемого - будет горячо)
Я не знаю кто это, к тому же я не посмотрел еще не одной серии. Дождусь конца сезона.=)

Создавать темы 17-Июл-2015 17:04

[Профиль]  [ЛС] 

PupuseG ®

Стаж: 5 лет 1 месяц

Сообщений: 514

Симпатии: 64

5-я серия!

Создавать темы 24-Июл-2015 02:57

[Профиль]  [ЛС] 

PupuseG ®

Стаж: 5 лет 1 месяц

Сообщений: 514

Симпатии: 64

6-я серия!

Создавать темы 31-Июл-2015 16:10

[Профиль]  [ЛС] 

PupuseG ®

Стаж: 5 лет 1 месяц

Сообщений: 514

Симпатии: 64

7-я серия

Создавать темы 08-Авг-2015 03:29

[Профиль]  [ЛС] 

PupuseG ®

Стаж: 5 лет 1 месяц

Сообщений: 514

Симпатии: 64

8-я серия

Создавать темы 14-Авг-2015 08:21

[Профиль]  [ЛС] 

PupuseG ®

Стаж: 5 лет 1 месяц

Сообщений: 514

Симпатии: 64

9-я серия

Создавать темы 21-Авг-2015 18:35

[Профиль]  [ЛС] 

PupuseG ®

Стаж: 5 лет 1 месяц

Сообщений: 514

Симпатии: 64

10-я серия

Создавать темы 28-Авг-2015 01:21

[Профиль]  [ЛС] 

inkus

Стаж: 7 лет 7 месяцев

Сообщений: 50

Симпатии: 39

ребята а дальше выкладывать планируете или как?

Создавать темы 12-Фев-2016 19:19

[Профиль]  [ЛС] 
Показать сообщения:    
Ответить на тему

Текущее время: 25-Ноя 07:10

Часовой пояс: UTC + 5



Вы не можете начинать темы
Вы не можете отвечать на сообщения
Вы не можете редактировать свои сообщения
Вы не можете удалять свои сообщения
Вы не можете голосовать в опросах
Вы не можете прикреплять файлы к сообщениям
Вы не можете скачивать файлы