Ускоренный мир (ОВА) / Accel World (Охара Масакадзу) [OVA] [2 из 2] [без хардсаба] [RUS(ext), JAP+SUB] [2012 г., фантастика, BDRip] [720p]

Ответить на тему
 

LikeSmile ®

Стаж: 4 года 7 месяцев

Сообщений: 298

Симпатии: 48

- Год выпуска: 2012
Страна: Япония
Жанр: фантастика
Продолжительность: ОВА, 2 эп. по 30 мин.
Выпуск: c 13.09.2012 по 31.01.2013--Перевод:
  • русские субтитры от Antravoco & Fratelli (полные/вспомогательные)
Озвучивание:
  • двухголосая (муж./жен.) от JAM & Viki (Animedia)
--Режиссер: Охара Масакадзу
Студия: Sunrise--Описание:
С внешностью 14-летнему Харуюки Арите не повезло. Толстый коротышка – он и в 2040 году такой; девушки не любят, хулиганы обижают, а за человека считают лишь друзья детства Тиюри и Такуму. Благодаря вживленному нейролинку тридцать лет спустя люди ходят в виртуал, как мы в Интернет, но и там бедняге не легче. Аватар зависит от реальных возможностей и самовосприятия, если ты душой и телом баран, то львом уже не станешь. Вот и бегает по виртуальной школе одинокий поросенок, отводит душу игрой в теннис со стенкой, где и правда добился успехов. Но вдруг случилось странное – Хару пригласила на разговор сама Куроюкихимэ, принцесса Черноснежка, самая красивая и загадочная девушка школы!
Черноснежка предложила Арите разорвать шаблон и выйти из образа неудачника путем участия в программе «Взрыв мозга». У испытуемого тысячекратно ускоряется мышление, мир застывает и меняется реальностью второго порядка – Ускоренным миром, действовать в котором могут только избранные. А дальше просто – жестокая игра, в которой надо выжить, в идеале собрать свой клан и одолеть конкурентов. Конечно же, Хару согласился, ведь теперь в миг ускорения он не поросенок, а Серебряный Ворон, плечистый красавец и верный слуга Черного Лотоса, своей подруги, учителя и госпожи. Осталась самая малость – победить во имя любви!
© Hollow, World Art--Дополнительную информацию можете найти на: AniDB || World Art || MAL--Качество: BDRip
Энкод: Winter
Тип видео: без хардсаба
Формат: mkv
Видео: x264 (Hi10p), 1280x720, ~3000 Kbps, 23.976 fps
Аудио JAP: Vorbis, 48000Hz, ~256 Kbps, 2ch
Аудио RUS: Vorbis, 48000Hz, ~256 Kbps, 2ch | AAC, 48000Hz, ~192 Kbps, 2ch (внешними файлами)--

Media Info

General
Unique ID                                : 212393634387009154747418575433191848326 (0x9FC986AAF8B209068B577D8EC526F986)
Complete name                            : J:\Anime [Скачано с торрентов]\Accel World OVA [BD] [720p]\[Winter] Accel World OVA 1 [BDrip 1280x720 x264 Vorbis].mkv
Format                                   : Matroska
Format version                           : Version 2
File size                                : 721 MiB
Duration                                 : 26mn 24s
Overall bit rate mode                    : Variable
Overall bit rate                         : 3 817 Kbps
Encoded date                             : UTC 2012-10-08 17:07:51
Writing application                      : mkvmerge v2.9.7 ('Tenderness') built on Jul  1 2009 18:43:35
Writing library                          : libebml v0.7.7 + libmatroska v0.8.1
Video
ID                                       : 1
Format                                   : AVC
Format/Info                              : Advanced Video Codec
Format profile                           : High [email protected]
Format settings, CABAC                   : Yes
Format settings, ReFrames                : 9 frames
Codec ID                                 : V_MPEG4/ISO/AVC
Duration                                 : 26mn 24s
Bit rate                                 : 3 485 Kbps
Width                                    : 1 280 pixels
Height                                   : 720 pixels
Display aspect ratio                     : 16:9
Frame rate mode                          : Constant
Frame rate                               : 23.976 fps
Color space                              : YUV
Chroma subsampling                       : 4:2:0
Bit depth                                : 10 bits
Scan type                                : Progressive
Bits/(Pixel*Frame)                       : 0.158
Stream size                              : 658 MiB (91%)
Writing library                          : x264 core 125 r2200 999b753
Encoding settings                        : cabac=1 / ref=9 / deblock=1:-2:-2 / analyse=0x3:0x133 / me=umh / subme=9 / psy=1 / psy_rd=0.90:0.00 / mixed_ref=1 / me_range=24 / chroma_me=1 / trellis=2 / 8x8dct=1 / cqm=0 / deadzone=21,11 / fast_pskip=1 / chroma_qp_offset=-2 / threads=6 / lookahead_threads=1 / sliced_threads=0 / nr=0 / decimate=0 / interlaced=0 / bluray_compat=0 / constrained_intra=0 / bframes=8 / b_pyramid=2 / b_adapt=2 / b_bias=0 / direct=1 / weightb=1 / open_gop=0 / weightp=2 / keyint=250 / keyint_min=23 / scenecut=40 / intra_refresh=0 / rc=crf / mbtree=0 / crf=16.0 / qcomp=0.70 / qpmin=9 / qpmax=42 / qpstep=4 / ip_ratio=1.40 / pb_ratio=1.30 / aq=1:0.90
Default                                  : Yes
Forced                                   : No
Audio
ID                                       : 2
Format                                   : Vorbis
Format settings, Floor                   : 1
Codec ID                                 : A_VORBIS
Duration                                 : 26mn 24s
Bit rate mode                            : Variable
Bit rate                                 : 256 Kbps
Channel(s)                               : 2 channels
Sampling rate                            : 48.0 KHz
Compression mode                         : Lossy
Stream size                              : 48.4 MiB (7%)
Writing library                          : libVorbis (Schaufenugget) (20101101 (Schaufenugget))
Language                                 : Japanese
Default                                  : Yes
Forced                                   : No
-

Скриншоты





--ТВ Версия

Создавать темы 26-Июн-2015 06:21

[Профиль]  [ЛС] 
Показать сообщения:    
Ответить на тему

Текущее время: 12-Дек 21:07

Часовой пояс: UTC + 5



Вы не можете начинать темы
Вы не можете отвечать на сообщения
Вы не можете редактировать свои сообщения
Вы не можете удалять свои сообщения
Вы не можете голосовать в опросах
Вы не можете прикреплять файлы к сообщениям
Вы не можете скачивать файлы