Приключения Тайо/ TAYO: The Little Bus / Серии: 1-26 из 26 (Дацапо Продуцтионс, Dacapo Productions [2012, мультсериал, детский, обучающий, WEB-DLRip] DUB

Ответить на тему
 

Ирина ®

Стаж: 3 года 7 месяцев

Сообщений: 57

Симпатии: 11

Приключения Тайо / Серии: 1-26 из 26 (Дацапо Продуцтионс, Dacapo Productions [2012, мультсериал, детский, обучающий, WEB-DLRip] DUB -Страна: Ю. Корея
Жанр: Мультсериал, детский, обучающий
Продолжительность: 26 х ~ 00:13:24
Год выпуска: 2012
Перевод: Профессиональный (дублированный)
Русские субтитры: нет-Режиссёр: Дацапо Продуцтионс / Dacapo Productions-Описание: Развивающий мультфильм адресован самым маленьким зрителям. В доступной и увлекательной форме он рассказывает малышам о правилах поведения на дороге.
Тайо — это маленький синий автобус. Он очень милый и веселый. Тайо только-только приехал в большой город, чтобы начать работать настоящим городским автобусом. Конечно, для этого придется немало потрудиться и многому научиться. Никто не может ездить по городу, пока не сдаст специальный экзамен. Тайо очень внимателен и осторожен и прекрасно знает правила дорожного движения. Так что с успехом пройти тест для него не составит труда — хоть маленький автобус и очень волнуется.-Качество: WEB-DLRip
Формат: AVI
Видео: 720x400 (1.8:1), 24 fps, XviD mpeg4 advanced simple profile, 1796 kbps avg, 0.260 bit/pixel
Аудио: 48 kHz, MP3 stereo, 2/0 (L,R) ch, ~128 kbps
Субтитры: отсутствуют

Список серий

01 серия - Один день из жизни Tao
02 серия - Тайо заблудился
03 серия - Первая поездка Тайо
04 серия - Добрые друзья
05 серия - Я боюсь темноты
06 серия - Спасибо Сито
07 серия - Не будем ссориться
08 серия - Хочу новые колеса
09 серия - Наш новый друг, Гaни
10 серия - Хана и Гaни
11 серия - Я хочу поехать на пикник
12 серия - Давай дружить
13 серия - Нури супер звезда
14 серия - Роги икает
15 серия - У Ханы выходной
16 серия - Состязание тяжеловесов
17 серия - Фокусник Джои
18 серия - Чудесный Френк и Элис
19 серия - Небольшое недоразумение
20 серия - Не ссорьтесь, Френк и Элис
21 серия - Космические приключения Тайо
22 серия - Опасная скорость
23 серия - Выходной Ленни
24 серия - Самая тяжелая pa6oта
26 серия - Тайо лучше вcex
25 серия - Гани заболел
26 серия - Тайо лучше всех

Скриншоты




MI

General
Complete name                  : D:\Мультики\МАШИНЫ\Приключения Тайо (2012)\Priklucheniya.Tayo.2012.WEBDLRip.MegaPeer\1 серия - Один день из жизни Тайо.avi
Format                         : AVI
Format/Info                    : Audio Video Interleave
File size                      : 185 MiB
Duration                       : 13mn 23s
Overall bit rate               : 1 934 Kbps
Writing library                : VirtualDub build 35491/release
Video
ID                             : 0
Format                         : MPEG-4 Visual
Format profile                 : Advanced [email protected]
Format settings, BVOP          : Yes
Format settings, QPel          : No
Format settings, GMC           : No warppoints
Format settings, Matrix        : Default (H.263)
Codec ID                       : XVID
Codec ID/Hint                  : XviD
Duration                       : 13mn 23s
Bit rate                       : 1 796 Kbps
Width                          : 720 pixels
Height                         : 400 pixels
Display aspect ratio           : 16:9
Frame rate                     : 24.000 fps
Color space                    : YUV
Chroma subsampling             : 4:2:0
Bit depth                      : 8 bits
Scan type                      : Progressive
Compression mode               : Lossy
Bits/(Pixel*Frame)             : 0.260
Stream size                    : 172 MiB (93%)
Writing library                : XviD 64
Audio
ID                             : 1
Format                         : MPEG Audio
Format version                 : Version 1
Format profile                 : Layer 3
Mode                           : Joint stereo
Codec ID                       : 55
Codec ID/Hint                  : MP3
Duration                       : 13mn 22s
Bit rate mode                  : Constant
Bit rate                       : 128 Kbps
Channel(s)                     : 2 channels
Sampling rate                  : 48.0 KHz
Compression mode               : Lossy
Stream size                    : 12.2 MiB (7%)
Alignment                      : Split accross interleaves
Interleave, duration           : 42 ms (1.00 video frame)
Interleave, preload duration   : 500 ms

Создавать темы 26-Июн-2015 12:47

[Профиль]  [ЛС] 
Показать сообщения:    
Ответить на тему

Текущее время: 21-Авг 06:06

Часовой пояс: UTC + 5



Вы не можете начинать темы
Вы не можете отвечать на сообщения
Вы не можете редактировать свои сообщения
Вы не можете удалять свои сообщения
Вы не можете голосовать в опросах
Вы не можете прикреплять файлы к сообщениям
Вы не можете скачивать файлы