На грани / The Brink / Сезон: 1 / Серии: 1-10 из 10 (Джон Полл, Джей Роуч, Скотт Уинант) [2015, комедия, HDTVRip] (MVO : [Amedia])

Ответить на тему
 

Sunnat1999 ®

Стаж: 4 года 5 месяцев

Сообщений: 756

Симпатии: 416

На грани / The Brink
Год выпуска: 2015
Страна: США
Жанр: комедия
Продолжительность: 00:30:00-Перевод: Профессиональный многоголосый [Amedia]
Русские субтитры: нет
Режиссёр: Джон Полл, Джей Роуч, Скотт Уинант-В ролях: Тим Роббинс, Джек Блэк, Маус Джексон, Икбал Теба, Мелани Каннокада, Марк Пэрриш, Бернард Уайт, Дэвид Диаан, Ношин Финикс, Анджини Танеджа Азар-Описание: Правительство и армия США пытаются предотвратить Третью мировую войну, в то время как в мире царит геополитический кризис.-Доп. информация:
 
-Качество: HDTVRip
Формат: AVI
Видео кодек: XviD
Аудио кодек: MP3
Видео: XviD, 1500 Кбит/с, 720x400
Аудио: MP3, 128 kb/s (2 ch)

MediaInfo

Общее
Полное имя : На грани\Amerikosy.pobediteli.s01e01.Amedia.HDTVRip.avi
Формат : AVI
Формат/Информация : Audio Video Interleave
Размер файла : 391 Мбайт
Продолжительность : 33 м.
Общий поток : 1637 Кбит/сек
Программа кодирования : VirtualDubMod 1.5.10.2 (build 2540/release)
Библиотека кодирования : VirtualDubMod build 2540/release
Видео
Идентификатор : 0
Формат : MPEG-4 Visual
Профиль формата : Advanced [email protected]
Параметр BVOP формата : 2
Параметр QPel формата : Нет
Параметр GMC формата : Без точки перехода
Параметр матрицы формата : Выборочная
Идентификатор кодека : XVID
Идентификатор кодека/Подсказка : XviD
Продолжительность : 33 м.
Битрейт : 1499 Кбит/сек
Ширина : 720 пикселей
Высота : 400 пикселей
Соотношение сторон : 16:9
Частота кадров : 23,976 кадра/сек
Цветовое пространство : YUV
Субдискретизация насыщенности : 4:2:0
Битовая глубина : 8 бит
Тип развёртки : Прогрессивная
Метод сжатия : С потерями
Бит/(Пиксели*Кадры) : 0.217
Размер потока : 358 Мбайт (92%)
Библиотека кодирования : XviD 1.2.1 (UTC 2008-12-04)
Аудио
Идентификатор : 1
Формат : MPEG Audio
Версия формата : Version 1
Профиль формата : Layer 3
Идентификатор кодека : 55
Идентификатор кодека/Подсказка : MP3
Продолжительность : 33 м.
Вид битрейта : Постоянный
Битрейт : 128 Кбит/сек
Каналы : 2 канала
Частота : 44,1 КГц
Метод сжатия : С потерями
Размер потока : 30,5 Мбайт (8%)
Выравнивание : Разделение по промежуткам
Продолжительность промежутка : 42 мс. (1,00 видеокадр)
Время предзагрузки промежутка : 500 мс.

Раздача ведется путем добавления новых серий

Когда раздача ведётся путём добавления новых серий, при каждом добавлении создётся новый торрент. Чтобы начать докачку новой серии, пользователям необходимо сделать следующее:
(1) остановить скачивание,
(2) удалить старый торрент у себя из клиента (старые серии удалять не надо),
(3) скачать новый торрент и запустить его у себя в клиенте вместо старого, при этом указать клиенту путь в старую папку, куда и должно происходить скачивание новых серий.
Ваш клиент при этом должен произвести хеширование (проверку) старой папки (если не производит сам - помогите ему сделать это), и будет докачивать только те серии, которых у вас ещё нет. Старые серии при этом не удаляются, а продолжают раздаваться!
Eсли вы уже удалили старые серии, то предотвратить повторную закачку старых серий можно, отжав галочку в соответсвующих местах при запуске нового торрента. По возможности, желательно не удалять старые серии как можно дольше, чтобы релизёр не столько продолжал раздавать старые серии, а смог сконцентрироваться на новых.

Скриншоты





Последний раз редактировалось: Sunnat1999 (2015-08-31 21:19), всего редактировалось 9 раз(а)

Создавать темы 26-Июн-2015 22:36

[Профиль]  [ЛС] 

Sunnat1999 ®

Стаж: 4 года 5 месяцев

Сообщений: 756

Симпатии: 416

ДОБАВЛЕНА 2 СЕРИЯ, ПОЖАЛУЙСТА ОБНОВИТЕ ТОРРЕНТ !

Создавать темы 29-Июн-2015 16:59

[Профиль]  [ЛС] 

Sunnat1999 ®

Стаж: 4 года 5 месяцев

Сообщений: 756

Симпатии: 416

ДОБАВЛЕНА 3 СЕРИЯ, ПОЖАЛУЙСТА ОБНОВИТЕ ТОРРЕНТ !

Создавать темы 07-Июл-2015 16:42

[Профиль]  [ЛС] 

Sunnat1999 ®

Стаж: 4 года 5 месяцев

Сообщений: 756

Симпатии: 416

ДОБАВЛЕНЫ 4-5 СЕРИИ, ПОЖАЛУЙСТА ОБНОВИТЕ ТОРРЕНТ !

Создавать темы 22-Июл-2015 22:41

[Профиль]  [ЛС] 

Sunnat1999 ®

Стаж: 4 года 5 месяцев

Сообщений: 756

Симпатии: 416

ДОБАВЛЕНЫ 6-9 СЕРИИ, ПОЖАЛУЙСТА ОБНОВИТЕ ТОРРЕНТ !

Создавать темы 22-Авг-2015 00:07

[Профиль]  [ЛС] 

Sunnat1999 ®

Стаж: 4 года 5 месяцев

Сообщений: 756

Симпатии: 416

ДОБАВЛЕНА 10, ЗАКЛЮЧИТЕЛЬНАЯ СЕРИЯ, ПОЖАЛУЙСТА ОБНОВИТЕ ТОРРЕНТ !

Создавать темы 25-Авг-2015 13:11

[Профиль]  [ЛС] 
Показать сообщения:    
Ответить на тему

Текущее время: 17-Авг 20:25

Часовой пояс: UTC + 5



Вы не можете начинать темы
Вы не можете отвечать на сообщения
Вы не можете редактировать свои сообщения
Вы не можете удалять свои сообщения
Вы не можете голосовать в опросах
Вы не можете прикреплять файлы к сообщениям
Вы не можете скачивать файлы