Единичка (Кирилл Белевич) [2015, Военный, драма, DVDRip] [Лицензия]

Страницы :  1, 2  След.

Ответить на тему
 

Сергей74 ®

Стаж: 2 года 4 месяца

Сообщений: 211

Симпатии: 293

Единичка- Жанр: Военный,драма
Год выпуска: 2015
Продолжительность: 01:44:55
Режиссёр: Кирилл Белевич
Озвучка: [Лицензия]
В ролях: Андрей Мерзликин, Илья Коробко, Анна Прус, Арина Борисова, Александр Вершинин, Михаил Евланов, Микаэл Джанибекян, Сергей Габриэлян, Добрыня Белевич-Оболенский, Якуб Здруйковский, Анна Зекеева-Описание:
Август 1944-го. Советские войска продолжают наступление в Восточной Польше. Подразделение старшего лейтенанта Егорова получает задание — удержать мост, через который планируется переправа частей Советской Армии. Прибыв на позицию, бойцы обнаруживают разрушенный монастырь, а в нем — группу глухих сирот с воспитательницей Евой. Утратив веру, она нашла смысл жизни в спасении немощных и беззащитных детей. Лейтенант Егоров оказывается перед сложным выбором — выполняя приказ командования, он будет вынужден поставить под угрозу жизнь маленьких поляков. Артиллеристы изо всех сил стараются не допустить смерти детей.-Качество видео: DVDRip
Формат видео: AVI
Видео:MP4, 688x272, 25fps, 865kbps
Аудио:MP3, 48000Hz, 2ch, 128kbps- 

Дополнительная информация


Сценарий: Сергей Калужанов, Александр Николаев, Анатолий Усов
Продюсер: Рубен Дишдишян, Елена Денисевич, Дмитрий Голубничий
Оператор: Юрий Кокошкин, Андрей Каторженко
Композитор: Леонид Каминер
Художник: Юрий Фоменко, Александра Весельчакова
Монтаж: Сергей Федотов
-

Рецензии

Рецензия от Mak_Victor
Русские фильмы о войне для меня всегда стояли особняком — это не то чтобы документалка, не то чтобы боевик, и однозначно не похоже на американские военные фильмы. В них куда меньше оголтелого всеобщего патриотизма, пафоса и героизма, и куда больше личного.
Нет, героизм здесь тоже присутствует, и боевой дух, и сплоченность, но при этом куда важнее личные истории и личные решения. Таков и фильм «Единичка» — сюжет о том, как подразделение выполняет боевую задачу, а сам фильм совсем не об этом.
Интереснее всего здесь, конечно, роль молодого лейтенанта, прекрасно исполненная юным актером Ильей Коробко. Совсем молодой мальчик, который вынужден почти моментально повзрослеть, принимать серьезные и важные решения, от которые зависят жизни людей (и детей — что еще сложнее!) получился у него очень живым и настоящим. Мерзликин тоже понравился, хотя для него подобная роль уже не первая, все равно играет с отдачей и очень сильно.
Сюжет «Единички» вряд ли кого-то оставит равнодушным — горстка беззащитных глухонемых сирот, по несчастливой случайности оказавшихся в центре боевых действий, их юная опекунша и не менее юный командир небольшого отряда, которому нужно выполнить задание и при этом не допустить гибели невинных… Словом, остаться эмоционально отстраненным не получится.
На фоне советских фильмов, конечно, сложно называть современные военные фильмы шедеврами — все-таки старое кино, снятое по свежим воспоминаниям, было совсем другим. Но тем не менее, лично мне «Единичка» очень понравилась. Пронзительный, но не слезодавительный, динамичный, но не претендующий на блокбастер, душевный фильм на близкую каждому русскому человеку тему.
-

Факты о фильме


Сценарий написан по повести писателя-фронтовика Александра Николаева «Мы все, не считая детей». В основу произведения легли события, происходившие с писателем во время Великой Отечественной войны, и главный герой, молодой лейтенант-артиллерист – прообраз самого Николаева.
В съемках боев принимало участие до 80 реконструкторов в день.
В роли «монастыря» выступил старинный замок Гроджец в Польше.
Создатели сделали ставку на максимальную достоверность: глухих сирот играют действительно глухие дети, немцев — немцы, а польский монастырь снимали в Польше, под Вроцлавом, в старинном замке.
Фильм снят к 70-летию Победы при поддержке Министерства культуры РФ.
Съемки длились 38 дней и проходили в России и Польше.
За две недели в Калужской области через реку Нару был выстроен мост в натуральную величину, выдерживающий нагрузку до 3,5 тонн. Так же для съемок была построена линия укреплений (окопы, блиндаж).
Для картины было привлечено большое количество военной техники. В том числе:
немецкий танк Т-IV и два советских танка Т-34-85;
автомобили «Студебеккер», ЗИС-5 «полуторка», «Виллис», Опель-блитц;
два артиллерийских орудия ЗИС-3;
советское и немецкое стрелковое оружие: 15 автоматов ППШ, 2 автомата ППС, 4 карабина Мосина, 2 пулемета Дегтярева и 2 пистолета ТТ, 20 автоматов МР-38 и МР-40 и пулемет МГ-42.
На съемках фильма работал военный консультант, подполковник Константин Горбатиков. Под его руководством все актеры прошли краткий курс артиллериста, изучили штатные должности при оружии, научились заряжать и передвигать орудия.
-

MediaInfo

General
Complete name : D:\Единичка.avi
Format : AVI
Format/Info : Audio Video Interleave
File size : 752 MiB
Duration : 1h 44mn
Overall bit rate : 1 002 Kbps
Writing application : VirtualDubMod 1.5.10.2 (build 2540/release)
Writing library : VirtualDubMod build 2540/release
Video
ID : 0
Format : MPEG-4 Visual
Format settings, BVOP : No
Format settings, QPel : No
Format settings, GMC : No warppoints
Format settings, Matrix : Default (H.263)
Codec ID : FMP4
Duration : 1h 44mn
Bit rate : 865 Kbps
Width : 688 pixels
Height : 272 pixels
Display aspect ratio : 2.529
Frame rate : 25.000 fps
Color space : YUV
Chroma subsampling : 4:2:0
Bit depth : 8 bits
Scan type : Progressive
Compression mode : Lossy
Bits/(Pixel*Frame) : 0.185
Stream size : 649 MiB (86%)
Writing library : Lavc55.18.102
Audio
ID : 1
Format : MPEG Audio
Format version : Version 1
Format profile : Layer 3
Mode : Joint stereo
Mode extension : MS Stereo
Codec ID : 55
Codec ID/Hint : MP3
Duration : 1h 44mn
Bit rate mode : Constant
Bit rate : 128 Kbps
Channel(s) : 2 channels
Sampling rate : 48.0 KHz
Compression mode : Lossy
Stream size : 96.1 MiB (13%)
Alignment : Split accross interleaves
Interleave, duration : 40 ms (1.00 video frame)
Interleave, preload duration : 500 ms
-

Скриншот c названием фильма

-

Скриншоты





Последний раз редактировалось: Сергей74 (2015-06-29 11:45), всего редактировалось 16 раз(а)

Создавать темы 27-Июн-2015 23:32

[Профиль]  [ЛС] 

Сергей74 ®

Стаж: 2 года 4 месяца

Сообщений: 211

Симпатии: 293

Включаем ТЕРЕДО автоматом (БАТНИК) читаем здесь ->>> https://tas-ix.net/viewtopic.php?t=107293

Или включаем ТЕРЕДО РУКАМИ

Запускаем CMD (Пуск->CMD)
Копируем и вставляем в cmd Код 1(ниже) ,жмём Enter
1.
netsh interface ipv6 set teredo enterpriseclient teredo.tas-ix.org
Копируем и вставляем в cmd Код 2(ниже) ,жмём Enter
2.
netsh int ipv6 show teredo
Должно стать так:
=== ВСЁ ОК
Но!Если у кого-то стало Тип:disabled

вот так disabled

Проверяем в Windows 7 включено ли тередо,ВКЛЮЧАЕМ ЕГО

1.Кнопка ПУСК ->>> Панель Управления
2.->>>Администрирование
3.->>>Службы
4.->>> Вспомогательная служба IP
P.S Кто не смог найти Администрирование,делаем так
P.S 2 У кого служба не запущена,запускаем ее (скрин украден у TIESTO) двойной клик на службе и в открывшемся окне..
Или рекомендую скачать и установить фикс go.microsoft.com/?linkid=9732129 (1.1 мег) всего или скачать MicrosoftFixit50440 ->>> https://tas-ix.net/dl.php?id=85079
Подходит для:
Windows 7 Enterprise, Windows 7 Home Basic, Windows 7 Home Premium, Windows 7 Professional, Windows 7 Ultimate, Windows 7 Starter, Windows Server 2008 R2 Datacenter, Windows Server 2008 R2 Enterprise, Windows Server 2008 R2 Standard, Windows Vista Enterprise, Windows Vista Enterprise 64-bit Edition, Windows Vista Home Basic 64-bit Edition, Windows Vista Home Premium 64-bit Edition, Windows Vista Ultimate 64-bit Edition, Windows Vista Business, Windows Vista Business 64-bit Edition, Windows Vista Home Basic, Windows Vista Home Premium, Windows Vista Starter, Windows Vista Ultimate, Windows Server 2008 Datacenter, Windows Server 2008 Enterprise, Windows Server 2008 Standard, Windows Server 2012 R2 Standard, Windows Server 2012 Standard, Windows Server 2012 Datacenter, Windows Server 2012 Essentials, Windows Server 2012 R2 Datacenter, Windows Server 2012 R2 Essentials, Windows Server 2012 R2 for Embedded Systems, Windows Server 2012 R2 Foundation
И опять Запускаем CMD (Пуск->CMD)
Копируем и вставляем в cmd Код 1(ниже) ,жмём Enter
1.
netsh interface ipv6 set teredo enterpriseclient teredo.tas-ix.org
Копируем и вставляем в cmd Код 2(ниже) ,жмём Enter
2.
netsh int ipv6 show teredo
Должно стать так:
=== ВСЁ ОК

или видеоурок Как включить TEREDO TAS-IX.ORG (новичкам)

видеоурок Как включить TEREDO TAS-IX.ORG (новичкам) - > https://tas-ix.net/viewtopic.php?t=107160

Признаки,что ТЕРЕДО работает(в uTorrent)

------------------------------------------===--->>> Ай пи 2001.... (Не всегда есть такие пиры..смотрите на раздачах,где много пиров) ---<<<----------------

-----------------------------------------=====-->> Кнопка Установить IPv6/Teredo неактивна --<<---------

----------------------->У кого uTorrent PRO-<---------------------

-----------------------------------------=в CMD-----------------------------
ipconfig
Только теперь ОБЯЗАТЕЛЬНО ЗАМЕНИТЕ IP Filter !!! новый фильтр можете скачать здесь - >>> https://tas-ix.net/viewtopic.php?t=107625

ИНСТРУКЦИЯ&#58; Установка IPФильтра (IPfilter&#41;&#58;

(украдено у Guff) ИНСТРУКЦИЯ: Установка IPФильтра (IPfilter):
Скачайте Ip-Filter (ipfilter.dat) в папку,куда установили uTorrent

или так

Зайдите в меню "Пуск" в "Выполнить" (или нажмите сочетание клавиш Win+R). Там введите %appdata%
Зайдите в папку uTorrent, скопируйте туда файл ipfilter.dat.
Для того, чтобы это заработало, в Опции->Настройки->Дополнительно для параметра ipfilter.enable должно быть проставлено значение true.

В настройках uTorrent

Затем, во вкладке Пиры нажмите "Перезагрузить IPFilter" или "Reload IPFilter" из контекстного меню.

в uTorrent ,во вкладке ПИРЫ



Последний раз редактировалось: Сергей74 (2015-08-27 17:29), всего редактировалось 3 раз(а)

Создавать темы 27-Июн-2015 23:37

[Профиль]  [ЛС] 

ustas

Стаж: 8 лет 7 месяцев

Сообщений: 53

Симпатии: 17

немцев играют немцы - оригинально )

Создавать темы 28-Июн-2015 00:05

[Профиль]  [ЛС] 

Сергей74 ®

Стаж: 2 года 4 месяца

Сообщений: 211

Симпатии: 293

Извиняюсь...Раздача начнётся утром... Т.к исходник перезалили (нет нескольких минут)..качаю по новой...

Создавать темы 28-Июн-2015 00:08

[Профиль]  [ЛС] 

ustas

Стаж: 8 лет 7 месяцев

Сообщений: 53

Симпатии: 17

942289Извиняюсь...Раздача начнётся утром... Т.к исходник перезалили (нет нескольких минут)..качаю по новой...
откуда качаешь-то?
помогу с раздачей, если что
в ЛС кинь

Создавать темы 28-Июн-2015 00:10

[Профиль]  [ЛС] 

Сергей74 ®

Стаж: 2 года 4 месяца

Сообщений: 211

Симпатии: 293

Кинул в ЛС ...Через (примерно) 1 час 40 мин будет готово

Создавать темы 28-Июн-2015 00:27

[Профиль]  [ЛС] 

Каротажник

Стаж: 3 года 10 месяцев

Сообщений: 195

Симпатии: 211

Сергей74, исправил шапку
допишите озвучку

Создавать темы 28-Июн-2015 07:52

[Профиль]  [ЛС] 

Сергей74 ®

Стаж: 2 года 4 месяца

Сообщений: 211

Симпатии: 293

942340Сергей74, просто оформите по шаблону https://tas-ix.net/viewtopic.php?t=5534
Сергей74, исправил шапку
допишите озвучку
скрин шапки по Вашей ссылке ..где здесь про озвучку ? и вообще нужно ли указывать озвучку в российском кино? ap

ИМХО на мой взгляд дополнительная информация по релизу должна только приветствоваться,а Ваше дело как модератора проверить,вся ли необходимая информация присутствует и соответствует ли раздаваемое аннонсируемому


Последний раз редактировалось: Сергей74 (2015-06-30 21:17), всего редактировалось 2 раз(а)

Создавать темы 28-Июн-2015 17:55

[Профиль]  [ЛС] 

Страх

Стаж: 3 года 10 месяцев

Сообщений: 1131

Симпатии: 448

Пример

Единичка (Кирилл Белевич) [2015,DVDRip][Лицензия]- Жанр: Военный,драма
Год выпуска: 2015
Продолжительность: 01:44:55
Режиссёр: Кирилл Белевич
Озвучка: [Лицензия]
В ролях: Андрей Мерзликин, Илья Коробко, Анна Прус, Арина Борисова, Александр Вершинин, Михаил Евланов, Микаэл Джанибекян, Сергей Габриэлян, Добрыня Белевич-Оболенский, Якуб Здруйковский, Анна Зекеева,-Описание:
Август 1944-го. Советские войска продолжают наступление в Восточной Польше. Подразделение старшего лейтенанта Егорова получает задание — удержать мост, через который планируется переправа частей Советской Армии. Прибыв на позицию, бойцы обнаруживают разрушенный монастырь, а в нем — группу глухих сирот с воспитательницей Евой. Утратив веру, она нашла смысл жизни в спасении немощных и беззащитных детей. Лейтенант Егоров оказывается перед сложным выбором — выполняя приказ командования, он будет вынужден поставить под угрозу жизнь маленьких поляков. Артиллеристы изо всех сил стараются не допустить смерти детей.-Качество видео: DVDRip
Формат видео: AVI
Видео:MP4, 688x272, 25fps, 865kbps
Аудио:MP3, 48000Hz, 2ch, 128kbps-

Факты о фильме

Сценарий написан по повести писателя-фронтовика Александра Николаева «Мы все, не считая детей». В основу произведения легли события, происходившие с писателем во время Великой Отечественной войны, и главный герой, молодой лейтенант-артиллерист – прообраз самого Николаева.
В съемках боев принимало участие до 80 реконструкторов в день.
В роли «монастыря» выступил старинный замок Гроджец в Польше.
Создатели сделали ставку на максимальную достоверность: глухих сирот играют действительно глухие дети, немцев — немцы, а польский монастырь снимали в Польше, под Вроцлавом, в старинном замке.
Фильм снят к 70-летию Победы при поддержке Министерства культуры РФ.
Съемки длились 38 дней и проходили в России и Польше.
За две недели в Калужской области через реку Нару был выстроен мост в натуральную величину, выдерживающий нагрузку до 3,5 тонн. Так же для съемок была построена линия укреплений (окопы, блиндаж).
Для картины было привлечено большое количество военной техники. В том числе:
немецкий танк Т-IV и два советских танка Т-34-85;
автомобили «Студебеккер», ЗИС-5 «полуторка», «Виллис», Опель-блитц;
два артиллерийских орудия ЗИС-3;
советское и немецкое стрелковое оружие: 15 автоматов ППШ, 2 автомата ППС, 4 карабина Мосина, 2 пулемета Дегтярева и 2 пистолета ТТ, 20 автоматов МР-38 и МР-40 и пулемет МГ-42.
На съемках фильма работал военный консультант, подполковник Константин Горбатиков. Под его руководством все актеры прошли краткий курс артиллериста, изучили штатные должности при оружии, научились заряжать и передвигать орудия.
-

MediaInfo

General
Complete name : D:\Единичка.avi
Format : AVI
Format/Info : Audio Video Interleave
File size : 752 MiB
Duration : 1h 44mn
Overall bit rate : 1 002 Kbps
Writing application : VirtualDubMod 1.5.10.2 (build 2540/release)
Writing library : VirtualDubMod build 2540/release
Video
ID : 0
Format : MPEG-4 Visual
Format settings, BVOP : No
Format settings, QPel : No
Format settings, GMC : No warppoints
Format settings, Matrix : Default (H.263)
Codec ID : FMP4
Duration : 1h 44mn
Bit rate : 865 Kbps
Width : 688 pixels
Height : 272 pixels
Display aspect ratio : 2.529
Frame rate : 25.000 fps
Color space : YUV
Chroma subsampling : 4:2:0
Bit depth : 8 bits
Scan type : Progressive
Compression mode : Lossy
Bits/(Pixel*Frame) : 0.185
Stream size : 649 MiB (86%)
Writing library : Lavc55.18.102
Audio
ID : 1
Format : MPEG Audio
Format version : Version 1
Format profile : Layer 3
Mode : Joint stereo
Mode extension : MS Stereo
Codec ID : 55
Codec ID/Hint : MP3
Duration : 1h 44mn
Bit rate mode : Constant
Bit rate : 128 Kbps
Channel(s) : 2 channels
Sampling rate : 48.0 KHz
Compression mode : Lossy
Stream size : 96.1 MiB (13%)
Alignment : Split accross interleaves
Interleave, duration : 40 ms (1.00 video frame)
Interleave, preload duration : 500 ms
-

Скриншот c названием фильма

-

Скриншоты



Создавать темы 28-Июн-2015 18:02

[Профиль]  [ЛС] 

Grock

Стаж: 6 лет 6 месяцев

Сообщений: 637

Симпатии: 113

Сергей74, На будущее, убирайте пожалуйста рецензии к фильму, доп информацию под спойлер

Создавать темы 29-Июн-2015 11:21

[Профиль]  [ЛС] 

Grock

Стаж: 6 лет 6 месяцев

Сообщений: 637

Симпатии: 113

Сергей74, Изменил оформление релиза, взял пример Страха, а также добавил еще информации. Теперь стало гораздо удобнее, все на своем месте. Надеюсь вы не против? Советую все свои релизы оформлять в том же духе.

Создавать темы 29-Июн-2015 11:44

[Профиль]  [ЛС] 

Сергей74 ®

Стаж: 2 года 4 месяца

Сообщений: 211

Симпатии: 293

942414Сергей74, Изменил оформление релиза, взял пример Страха, а также добавил еще информации. Теперь стало гораздо удобнее, все на своем месте. Надеюсь вы не против? Советую все свои релизы оформлять в том же духе.
И что вам неймётся :tm: Сделайте нормальный шаблон в конце концов,потом требуйте что-то ...

Создавать темы 29-Июн-2015 13:38

[Профиль]  [ЛС] 

Grock

Стаж: 6 лет 6 месяцев

Сообщений: 637

Симпатии: 113

Сергей74, Шаблоны есть тут - Шаблоны для оформления релизов
Это базовые данные, которые в обязательном порядке должны быть, а уже доп.инфо на ваше усмотрение добавляется. С уважением
Я ничего не требовал, я советовал как правильнее и грамотнее оформлять, но ни в коем случае не требовал

Создавать темы 29-Июн-2015 13:47

[Профиль]  [ЛС] 

abuz85

Стаж: 8 лет 7 месяцев

Сообщений: 109

Симпатии: 80

Если интересно мое мнение, то я понимаю под лицензионной озвучкой - профессиональную озвучку иностранного фильма, это может быть либо дубляж, либо закадровая озвучка, выпущенная официально (дистрибьютором) на DVD или Blu-ray.
На мой взгляд правильнее будет придерживаться шаблона и указывать именно "Перевод"
Для данного примера указать перевод как "Не требуется" или "Русский (оригинал)". На мой взгляд это лучше чем "Озвучка: [Лицензия]"
Если порядок обязательный, то сначала идет "Год выпуска", "Страна", а только после этого "Жанр"
[b]Формат[/b]: формат файла

Создавать темы 29-Июн-2015 14:25

[Профиль]  [ЛС] 

CREDO_2006

Стаж: 5 лет 6 месяцев

Сообщений: 19

Симпатии: 1

А как фильм то? Стоит качать и посмотреть?

Создавать темы 29-Июн-2015 17:36

[Профиль]  [ЛС] 
Показать сообщения:    
Ответить на тему

Текущее время: 20-Авг 18:44

Часовой пояс: UTC + 5



Вы не можете начинать темы
Вы не можете отвечать на сообщения
Вы не можете редактировать свои сообщения
Вы не можете удалять свои сообщения
Вы не можете голосовать в опросах
Вы не можете прикреплять файлы к сообщениям
Вы не можете скачивать файлы