Он - сильнейший учитель! / Denpa Kyoushi (Сато Масато) [TV] [Без хардсаба] [01-24 из 24] [RUS] [2015г., комедия HDTV-Rip] [720p]

Ответить на тему
 

SoluSoull ®

Стаж: 2 года 7 месяцев

Сообщений: 379

Симпатии: 452

Denpa Kyoushi
Он - сильнейший учитель!-Производство: Япония
Год выпуска: 2015
Жанр: комедия
Тип: ТВ (24 эп.), 25 мин.-Перевод:
Озвучка от Inspector Gadjet & Гамлетка Цезаревна (anidub)-Режиссёр: Сато Масато
Автор оригинала: Адзума Такэси
Студия: A-1 Pictures-Описание: Новое время – новые герои-учителя. Теперь, чтобы понравиться старшеклассникам и завоевать у них авторитет, не обязательно быть брутальным стриженым мачо верхом на мотоцикле. Как доказал гениальный затворник Дзюнъитиро Кагами, вполне сойдет костлявый и патлатый отаку в очках и лабораторном халате сомнительной свежести. Одно остается неизменным – нужно быть честным, искренним, любить детей и со всей силой, умением и смекалкой выступать против скуки, косности и лицемерия, что царят, увы, не только в японских школах!
И пускай 24-летний Кагами объясняет каждому встречному свой принцип «делаю, что хочу» - парень просто забыл, что наш мир полон женщин, а уж они любого заставят хотеть того, что нужно! Верный поклонник игр, аниме и манги встал на трудовую стезю после настоятельной просьбы младшей сестры, а после первых успехов его заметила Коёми Хиираги, директор частной школы – и участь восходящей звезды педагогики оказалась решена. Кстати, Коёми, взявшая под крыло молодого сэнсэя, тоже считает, что скука – злейший враг японского школьника. Превзойдет ли подобный дуэт Песталоцци и Макаренко – мы скоро узнаем… если доживем!-Качество: HDTVrip \ Формат: MP4
Тип видео: без хардсаба
Видео: AVC, 1280х720(16/9), 1648 Kbps, 23.976fps, 8 bits
Аудио: AAC, 2 ch, 192кбит/с, 48000Hz-

Скриншоты


MI

General
Complete name : E:\Downloads\Denpa Kyoushi\[AniDub]_Denpa_Kyoushi_TV_01_[1280x720_x264]_[Inspector_Gadjet_and_Hamletka_Cezarevna].mp4
Format : MPEG-4
Format profile : Base Media
Codec ID : isom
File size : 319 MiB
Duration : 24mn 10s
Overall bit rate mode : Variable
Overall bit rate : 1 844 Kbps
Encoded date : UTC 2015-04-06 14:29:08
Tagged date : UTC 2015-04-06 14:29:08
Writing application : Yamb 2.1.0.0 [http://yamb.unite-video.com]
Video
ID : 1
Format : AVC
Format/Info : Advanced Video Codec
Format profile : [email protected]
Format settings, CABAC : Yes
Format settings, ReFrames : 4 frames
Codec ID : avc1
Codec ID/Info : Advanced Video Coding
Duration : 24mn 9s
Bit rate : 1 648 Kbps
Maximum bit rate : 10.7 Mbps
Width : 1 280 pixels
Height : 720 pixels
Display aspect ratio : 16:9
Frame rate mode : Constant
Frame rate : 23.976 fps
Color space : YUV
Chroma subsampling : 4:2:0
Bit depth : 8 bits
Scan type : Progressive
Bits/(Pixel*Frame) : 0.075
Stream size : 285 MiB (89%)
Title : 264:[email protected]
Writing library : x264 core 129 r2245+729M 1a52e03
Encoding settings : cabac=1 / ref=4 / deblock=1:1:-1 / analyse=0x3:0x113 / me=umh / subme=9 / psy=1 / fade_compensate=0.00 / psy_rd=1.00:0.00 / mixed_ref=1 / me_range=24 / chroma_me=1 / trellis=2 / 8x8dct=1 / cqm=0 / deadzone=21,11 / fast_pskip=1 / chroma_qp_offset=-2 / threads=8 / lookahead_threads=1 / sliced_threads=0 / nr=0 / decimate=1 / interlaced=0 / bluray_compat=0 / constrained_intra=0 / fgo=0 / bframes=9 / b_pyramid=2 / b_adapt=2 / b_bias=0 / direct=1 / weightb=1 / open_gop=0 / weightp=2 / keyint=240 / keyint_min=24 / scenecut=40 / intra_refresh=0 / rc=crf / mbtree=0 / crf=18.5 / qcomp=0.72 / qpmin=0 / qpmax=69 / qpstep=4 / ip_ratio=1.40 / pb_ratio=1.30 / aq=1:0.85
Encoded date : UTC 2015-04-04 12:19:34
Tagged date : UTC 2015-04-06 14:29:12
Color primaries : BT.709
Transfer characteristics : BT.709
Matrix coefficients : BT.709
Color range : Limited
Audio
ID : 2
Format : AAC
Format/Info : Advanced Audio Codec
Format profile : LC
Codec ID : 40
Duration : 24mn 10s
Bit rate mode : Variable
Bit rate : 192 Kbps
Maximum bit rate : 200 Kbps
Channel(s) : 2 channels
Channel positions : Front: L R
Sampling rate : 48.0 KHz
Compression mode : Lossy
Stream size : 33.2 MiB (10%)
Title : [AniDUB]
Language : Russian
Encoded date : UTC 2015-04-06 14:29:11
Tagged date : UTC 2015-04-06 14:29:12


Последний раз редактировалось: SoluSoull (2015-10-07 10:19), всего редактировалось 6 раз(а)

Создавать темы 28-Июн-2015 00:49

[Профиль]  [ЛС] 

SoluSoull ®

Стаж: 2 года 7 месяцев

Сообщений: 379

Симпатии: 452

ВААХ сестрёнка ваше суперская, особенно в домашней одёжке, милота


Последний раз редактировалось: SoluSoull (2015-10-07 10:18), всего редактировалось 3 раз(а)

Создавать темы 28-Июн-2015 00:54

[Профиль]  [ЛС] 

FireHowler

Стаж: 4 года 5 месяцев

Сообщений: 270

Симпатии: 153

имеет смысл перезалить скриншоты на другой хостинг изображений

Создавать темы 21-Июл-2015 00:06

[Профиль]  [ЛС] 

daniellya

Стаж: 5 лет 6 месяцев

Сообщений: 338

Симпатии: 29

>сестрёнка ваше суперская
>домен из блокд с четырьмя телками
Ох лол, ты про которую из четырёх? хD

Создавать темы 21-Июл-2015 12:38

[Профиль]  [ЛС] 

SoluSoull ®

Стаж: 2 года 7 месяцев

Сообщений: 379

Симпатии: 452

АААААА НЕНАВИЖУ всё это

Создавать темы 06-Авг-2015 21:14

[Профиль]  [ЛС] 

SNIL

Стаж: 5 лет 9 месяцев

Сообщений: 2624

Симпатии: 341

SoluSoull, Что?

Создавать темы 07-Авг-2015 05:56

[Профиль]  [ЛС] 

SoluSoull ®

Стаж: 2 года 7 месяцев

Сообщений: 379

Симпатии: 452

SNIL да ранее постер был залит на хостинг мйторра, и кажись уних чтот случилось из за чего вместо постера, фигня какая та была

Создавать темы 07-Авг-2015 16:24

[Профиль]  [ЛС] 

SNIL

Стаж: 5 лет 9 месяцев

Сообщений: 2624

Симпатии: 341

SoluSoull, http://tas-ix.net/viewtopic.php?t=108105 дело наверное в этом

Создавать темы 07-Авг-2015 18:56

[Профиль]  [ЛС] 

SoluSoull ®

Стаж: 2 года 7 месяцев

Сообщений: 379

Симпатии: 452

10-12

Создавать темы 13-Авг-2015 14:07

[Профиль]  [ЛС] 

Hurracan

Стаж: 2 года 1 месяц

Сообщений: 79

Симпатии: 80

когда остальные серии добавите

Создавать темы 28-Сен-2015 20:29

[Профиль]  [ЛС] 

FireHowler

Стаж: 4 года 5 месяцев

Сообщений: 270

Симпатии: 153

953370когда остальные серии добавите
анидаб не выкладывает, хотя все серии уже вышли

Создавать темы 28-Сен-2015 20:58

[Профиль]  [ЛС] 

Hurracan

Стаж: 2 года 1 месяц

Сообщений: 79

Симпатии: 80

953372
953370когда остальные серии добавите
анидаб не выкладывает, хотя все серии уже вышли
спасибо за ответ

Создавать темы 29-Сен-2015 14:04

[Профиль]  [ЛС] 

Hurracan

Стаж: 2 года 1 месяц

Сообщений: 79

Симпатии: 80

Анидаб выкладывает остальные серии или нет еще.?

Создавать темы 02-Окт-2015 20:00

[Профиль]  [ЛС] 

SoluSoull ®

Стаж: 2 года 7 месяцев

Сообщений: 379

Симпатии: 452

всё

Создавать темы 07-Окт-2015 10:19

[Профиль]  [ЛС] 

Топик был перенесен из форума Аниме онгоинги в форум HD, HDTVRip
[email protected]

Создавать темы 07-Окт-2015 10:36

 
Показать сообщения:    
Ответить на тему

Текущее время: 24-Окт 09:12

Часовой пояс: UTC + 5



Вы не можете начинать темы
Вы не можете отвечать на сообщения
Вы не можете редактировать свои сообщения
Вы не можете удалять свои сообщения
Вы не можете голосовать в опросах
Вы не можете прикреплять файлы к сообщениям
Вы не можете скачивать файлы