Процесс / Le procès (Орсон Уэллс) [1962, Франция, Германия (ФРГ), Италия, фэнтези, триллер, драма, криминал, детектив, BDRip] MVO (Film Prestige)

Ответить на тему
 

lotto ®

Стаж: 7 лет 9 месяцев

Сообщений: 221

Симпатии: 409

Процесс / Le procès-- Страна: Франция, Германия (ФРГ), Италия
Жанр: фэнтези, триллер, драма, криминал, детектив
Год выпуска: 1962
Продолжительность: 02:01:01
Перевод: Профессиональный (многоголосый закадровый) Film Prestige
Cубтитры: нет--Режиссер: Орсон Уэллс
В ролях: Энтони Перкинс, Орсон Уэллс, Роми Шнайдер, Эльза Мартинелли, Сюзанн Флон, Жанна Моро, Аким Тамирофф, Мадлен Робинсон, Макс Бухсбаум, Арнольдо Фоа--Описание: Рядовой клерк Йозеф К. обвиняется в некоем преступлении, которое он не совершал, поскольку не совершал вообще ничего противозаконного. Собственно, состав преступления ему не называют и сами обвинители, поскольку так же не знают, в чём он виноват…--Доп. информация: Фильм снят по мотивам романа Франца Кафки «Процесс» (Der Prozess, 1925), изданного после смерти писателя.-- --Качество видео: BDRip
Формат видео: AVI
Видео: Xvid, 704x432, 23.976fps, 1518kbps
Аудио: AC3, 48 KHz, 2 ch, 192kbps (русский, многоголосый)

MediaInfo

General
Complete name : The.Trial.1962.BDRip.MVO.All.Films.avi
Format : AVI
Format/Info : Audio Video Interleave
File size : 1.45 GiB
Duration : 2h 1mn
Overall bit rate : 1 720 Kbps
Movie name : The.Trial.1962.BDRip.MVO.All.Films
Director : DIABLO93
Genre : Drama/Crime/Romance
Writing application : VirtualDubMod 1.5.10.3 | www.virtualdub-fr.org || (build 2550/release)
Original source form/Name : Movie
Copyright : Rutracker.org (R.G. All Films)
Video
ID : 0
Format : MPEG-4 Visual
Format profile : Advanced [email protected]
Format settings, BVOP : 2
Format settings, QPel : No
Format settings, GMC : No warppoints
Format settings, Matrix : Custom
Codec ID : XVID
Codec ID/Hint : XviD
Duration : 2h 1mn
Bit rate : 1 518 Kbps
Width : 704 pixels
Height : 432 pixels
Display aspect ratio : 16:10
Frame rate : 23.976 fps
Color space : YUV
Chroma subsampling : 4:2:0
Bit depth : 8 bits
Scan type : Progressive
Compression mode : Lossy
Bits/(Pixel*Frame) : 0.208
Stream size : 1.28 GiB (88%)
Writing library : XviD 65
Audio
ID : 1
Format : AC-3
Format/Info : Audio Coding 3
Mode extension : CM (complete main)
Format settings, Endianness : Big
Codec ID : 2000
Duration : 2h 1mn
Bit rate mode : Constant
Bit rate : 192 Kbps
Channel(s) : 2 channels
Channel positions : Front: L R
Sampling rate : 48.0 KHz
Compression mode : Lossy
Stream size : 166 MiB (11%)
Alignment : Split accross interleaves
Interleave, duration : 42 ms (1.00 video frame)
Interleave, preload duratio : 500 ms

Скриншот c названием фильма

Скриншоты





Создавать темы 28-Июн-2015 10:05

[Профиль]  [ЛС] 

mukimov

Стаж: 5 лет 1 месяц

Сообщений: 15

Симпатии: 1

Как фильм? Книга отпадная.

Создавать темы 29-Июн-2015 22:50

[Профиль]  [ЛС] 

lotto ®

Стаж: 7 лет 9 месяцев

Сообщений: 221

Симпатии: 409

942478Как фильм? Книга отпадная.
Один из лучших фильмов Орсона Уэлсса (Гражданин Кейн) с мощнейшей режиссурой, фильм создан на синтезе фантасмагории и психоделики.

Создавать темы 30-Июн-2015 08:22

[Профиль]  [ЛС] 

mukimov

Стаж: 5 лет 1 месяц

Сообщений: 15

Симпатии: 1

942497
942478Как фильм? Книга отпадная.
Один из лучших фильмов Орсона Уэлсса (Гражданин Кейн) с мощнейшей режиссурой, фильм создан на синтезе фантасмагории и психоделики.
Хорошо показано как потерпевший становится обвиняемым, а обвиняемый потерпевшим. Хотя Кафка об этом явно пишет эзотерически, но посыл понятен - как по липовым обвинениям система может уничтожить человека. Фильм отличный имо.

Создавать темы 06-Июл-2015 23:46

[Профиль]  [ЛС] 

_pr_manager_

Стаж: 4 года 6 месяцев

Сообщений: 1

вернитесь на раздачу пжл.....

Создавать темы 25-Апр-2016 20:09

[Профиль]  [ЛС] 
Показать сообщения:    
Ответить на тему

Текущее время: 23-Окт 00:27

Часовой пояс: UTC + 5



Вы не можете начинать темы
Вы не можете отвечать на сообщения
Вы не можете редактировать свои сообщения
Вы не можете удалять свои сообщения
Вы не можете голосовать в опросах
Вы не можете прикреплять файлы к сообщениям
Вы не можете скачивать файлы