Грейсленд / Graceland / Сезон: 3 / Серии: 8 из 13 (Ренни Харлин) [2015, Драма, WEB-DLRip] (MVO : (NewStudio)

Ответить на тему
 

Страх ®

Стаж: 4 года 1 месяц

Сообщений: 1131

Симпатии: 448

Грейсленд / Graceland- -Год выпуска: 2015 Страна: США Жанр: Драма Продолжительность: 00:42:10-Перевод: Профессиональный многоголосый закадровый
Режиссёр: Ренни Харлин
-В ролях: Дэниел Сунджата, Ванесса Ферлито, Брэндон Джей МакЛарен, Стивен Л. Коэн, Том Стэдхем, Аарон Твейт, Мэнни Монтана-Описание:Сотрудников наркоконтроля, ФБР и таможенной службы собирают в одном доме, который получил название "Грейсленд", для работы под прикрытием. Молодой агент Майк Уоррен (Аарон Твейт), поступает под руководство более опытного коллеги агента Пола Бриггса (Дэниел Сунджата), который готов приплатить Майку, лишь бы тот сбежал.-Доп. информация: TBA
Внимание! График ориентировочный, выход новой серии может быть перенесён из-за непредвиденных обстоятельств. График выхода серий в оригинале можно посмотреть на imdb или tv.com-Ссылка на предыдущие и альтернативные раздачи:Грейсленд / Graceland (Сезон 2) Newstudio-Качество: WEB-DLRip Формат: AVI Видео кодек: XviD Аудио кодек: MP3
Видео: 1553 kb/s, 720x400 Аудио: Русский / Оригинал: MP3, 128 kb/s
-

MediaInfo

General
Complete name : D:\Tracker\Movie Files\Graysland\Graceland.s03e01.WEBDLRip.NewStudio.TV.avi
Format : AVI
Format/Info : Audio Video Interleave
File size : 550 MiB
Duration : 42mn 10s
Overall bit rate : 1 823 Kbps
Writing application : VirtualDubMod 1.5.10.2 (build 2540/release)
Writing library : VirtualDubMod build 2540/release
Video
ID : 0
Format : MPEG-4 Visual
Format profile : Advanced [email protected]
Format settings, BVOP : 2
Format settings, QPel : No
Format settings, GMC : No warppoints
Format settings, Matrix : Default (MPEG)
Codec ID : XVID
Codec ID/Hint : XviD
Duration : 42mn 10s
Bit rate : 1 553 Kbps
Width : 720 pixels
Height : 400 pixels
Display aspect ratio : 16:9
Frame rate : 23.976 fps
Color space : YUV
Chroma subsampling : 4:2:0
Bit depth : 8 bits
Scan type : Progressive
Compression mode : Lossy
Bits/(Pixel*Frame) : 0.225
Stream size : 469 MiB (85%)
Writing library : XviD 73
Audio #1
ID : 1
Format : MPEG Audio
Format version : Version 1
Format profile : Layer 3
Mode : Joint stereo
Mode extension : MS Stereo
Codec ID : 55
Codec ID/Hint : MP3
Duration : 42mn 10s
Bit rate mode : Constant
Bit rate : 128 Kbps
Channel(s) : 2 channels
Sampling rate : 48.0 KHz
Compression mode : Lossy
Stream size : 38.6 MiB (7%)
Alignment : Aligned on interleaves
Interleave, duration : 42 ms (1.00 video frame)
Interleave, preload duration : 504 ms
Writing library : LAME3.99r
Encoding settings : -m j -V 4 -q 2 -lowpass 17 -b 128
Audio #2
ID : 2
Format : MPEG Audio
Format version : Version 1
Format profile : Layer 3
Mode : Joint stereo
Mode extension : MS Stereo
Codec ID : 55
Codec ID/Hint : MP3
Duration : 42mn 10s
Bit rate mode : Constant
Bit rate : 128 Kbps
Channel(s) : 2 channels
Sampling rate : 48.0 KHz
Compression mode : Lossy
Stream size : 38.6 MiB (7%)
Alignment : Aligned on interleaves
Interleave, duration : 42 ms (1.00 video frame)
Interleave, preload duration : 504 ms
Writing library : LAME3.99r
Encoding settings : -m j -V 4 -q 2 -lowpass 17 -b 128

Скриншоты






Последний раз редактировалось: Страх (2015-08-17 21:03), всего редактировалось 3 раз(а)

Создавать темы 28-Июн-2015 20:18

[Профиль]  [ЛС] 

Страх ®

Стаж: 4 года 1 месяц

Сообщений: 1131

Симпатии: 448

Добавлена 4 серия )

Создавать темы 23-Июл-2015 00:00

[Профиль]  [ЛС] 

Страх ®

Стаж: 4 года 1 месяц

Сообщений: 1131

Симпатии: 448

Добавлены 5-6-7-8 ые серии.

Создавать темы 17-Авг-2015 21:03

[Профиль]  [ЛС] 
Показать сообщения:    
Ответить на тему

Текущее время: 25-Ноя 12:30

Часовой пояс: UTC + 5



Вы не можете начинать темы
Вы не можете отвечать на сообщения
Вы не можете редактировать свои сообщения
Вы не можете удалять свои сообщения
Вы не можете голосовать в опросах
Вы не можете прикреплять файлы к сообщениям
Вы не можете скачивать файлы