Миллион лет до нашей эры / One Million Years B.C. (Дон Чэффи) [1966, Великобритания, фэнтези, приключения,, DVDRip] (Original Eng)

Ответить на тему
 

Baxa2009 ®

Стаж: 5 лет 6 месяцев

Сообщений: 42

Симпатии: 15

-Миллион лет до нашей эры / One Million Years B.C.- Страна: Великобритания
Жанр: фэнтези, приключения,
Год выпуска: 1966
Продолжительность: 01:28:00
Перевод: Отсутствует.Оригинальное
Cубтитры: нет
Оригинальная аудиодорожка: английский-Режиссер: Дон Чэффи / Don Chaffey-В ролях: Рэкел Уэлч. Джон Ричардсон. Перси Херберт. Роберт Браун. Мартин Бесвик. Жан Влэдон. Лиза Томас. Малья Наппи. Ричард Джеймс. Уильям Лион Браун. ...-Описание: Действие фильма происходит в вымышленное доисторическое время. Пещерные люди сосуществуют в одном мире с динозаврами и фантастическими существами.
Главный герой фильма Тумак изгнан из своего родного племени. После многих дней скитаний по пустыне, едва живого, его спасают от смерти незнакомые ему воины. Новые соплеменники гораздо более цивилизованы и продвинулись дальше в эволюции: имеют более совершенный язык, едят с тарелок, проводят обряд похорон. Тумак сближается с девушкой Лоаной. Тумак пытается украсть копьё одного из воинов, но оказывается пойман и изгнан из племени вместе с Лоаной.
Тумак и Лоана вынуждены скитаться, постоянно спасаясь от полной опасности доисторической фауны…
--Качество видео: DVDRip
Формат видео: AVI-Видео: XviD, 2164 kbps, 704x384, 25.000 fps
Аудио: Dolby AC3 48000Hz stereo 192kbps
Eng--

MediaInfo

General
Complete name Million.Let.DVDRip..avi
Format : AVI
Format/Info : Audio Video Interleave
File size : 1.45 GiB
Duration : 1h 28mn
Overall bit rate : 2 365 Kbps
Movie name : Миллион лет до нашей эры / One Million Years B.C.
Director : SC Kosmos
Genre : Action/Adventure
Writing application : VirtualDubMod 1.5.10.2 (build 2540/release)
Original source form/Name : Film
Copyright : 2010-08-22
Comment : Rip by Lesnik125
Video
ID : 0
Format : MPEG-4 Visual
Format profile : Advanced [email protected]
Format settings, BVOP : Yes
Format settings, QPel : No
Format settings, GMC : No warppoints
Format settings, Matrix : Custom
Codec ID : XVID
Codec ID/Hint : XviD
Duration : 1h 28mn
Bit rate : 2 164 Kbps
Width : 704 pixels
Height : 384 pixels
Display aspect ratio : 1.85:1
Frame rate : 25.000 fps
Color space : YUV
Chroma subsampling : 4:2:0
Bit depth : 8 bits
Scan type : Progressive
Compression mode : Lossy
Bits/(Pixel*Frame) : 0.320
Stream size : 1.33 GiB (91%)
Writing library : XviD 1.2.1 (UTC 2008-12-04)
Audio
ID : 1
Format : AC-3
Format/Info : Audio Coding 3
Mode extension : CM (complete main)
Format settings, Endianness : Big
Codec ID : 2000
Duration : 1h 27mn
Bit rate mode : Constant
Bit rate : 192 Kbps
Channel(s) : 2 channels
Channel positions : Front: L R
Sampling rate : 48.0 KHz
Bit depth : 16 bits
Compression mode : Lossy
Stream size : 121 MiB (8%)
Alignment : Split accross interleaves
Interleave, duration : 40 ms (1.00 video frame)
Interleave, preload duration : 500 ms
-

Скриншоты

--

Создавать темы 29-Июн-2015 02:18

[Профиль]  [ЛС] 

Grock

Стаж: 6 лет 8 месяцев

Сообщений: 637

Симпатии: 113

Такие красивые и ухоженные девушки играют в фильме, ммм ah

Создавать темы 29-Июн-2015 11:18

[Профиль]  [ЛС] 

Топик был перенесен из форума Зарубежное кино в форум Фильмы до 2010
ruhal

Создавать темы 13-Мар-2017 20:07

 
Показать сообщения:    
Ответить на тему

Текущее время: 19-Окт 13:53

Часовой пояс: UTC + 5



Вы не можете начинать темы
Вы не можете отвечать на сообщения
Вы не можете редактировать свои сообщения
Вы не можете удалять свои сообщения
Вы не можете голосовать в опросах
Вы не можете прикреплять файлы к сообщениям
Вы не можете скачивать файлы