Упырь / Ghoul (Петр Якл / Petr Jákl) [2015, Чехия, Украина, ужасы, триллер,WEB-DLRip] (VO : (Хихидок)) (Sub Eng + Original Eng)

Ответить на тему
 

lector_87 ®

Стаж: 3 года 7 месяцев

Сообщений: 391

Симпатии: 348

Упырь / Ghoul- Страна: Чехия, Украина
Жанр: ужасы, триллер
Год выпуска: 2015
Продолжительность: 01:31:03--Перевод: Одноголосый закадровый (Хихидок)
Cубтитры: английские(вшитые на русскую и украинскую речь)
Оригинальная аудиодорожка: английский--Режиссер: Петр Якл / Petr Jákl--В ролях: Дженнифер Армор, Пол С. Трэйси, Дебра Гарза, Алина Головлева и др.--Описание: Фильм проберет ужасом любого . В центре сюжета съемочная группа, участники которой решили создать "шедевр" об ужаснейшем маньяке прошлых лет, который даже не заслуживает того, чтобы называться человеком. Для этого они приезжают в небольшую деревушку, которая находится на просторах Украины, и пытаются снять фильм о каннибализме, считая, что это произведет шокирующее впечатление на зрителей.Соседи с ужасом вспоминают о нелюде, имя которому Андрей Чикатило. Настоящий зверь, страдавший многими психическими отклонениями, вследствие которых убил более 50 человек, подвергая своих жертв ужасным мукам, физическому и сексуальному насилию, а иногда, даже поедавший их. Съемочная группа принимает решение вызвать дух маньяка, и с его помощью узнать больше подробностей. Вот только чем они рискуют, никто не догадывается.--Качество видео:WEB-DLRip
Формат видео: AVI
Видео: XviD, 1631 Кбит/с, 720х400, 23.976 fps
Аудио: Русский (AC3, 6 ch, 384 Кбит/с, 48.0 KHz)
Аудио 2: Английский (AC3, 6 ch, 384 Кбит/с, 48.0 KHz)--

MediaInfo

General
Complete name : F:\Ghoul.2015.WEB-DLRip..avi
Format : AVI
Format/Info : Audio Video Interleave
File size : 1.45 GiB
Duration : 1h 26mn
Overall bit rate : 2 413 Kbps
Writing application : VirtualDubMod 1.5.10.2 (build 2540/release)
Writing library : VirtualDubMod build 2540/release
Copyright : ExKinoRay
Video
ID : 0
Format : MPEG-4 Visual
Format profile : Advanced [email protected]
Format settings, BVOP : 1
Format settings, QPel : No
Format settings, GMC : No warppoints
Format settings, Matrix : Custom
Codec ID : XVID
Codec ID/Hint : XviD
Duration : 1h 26mn
Bit rate : 1 631 Kbps
Width : 720 pixels
Height : 400 pixels
Display aspect ratio : 16:9
Frame rate : 23.976 fps
Color space : YUV
Chroma subsampling : 4:2:0
Bit depth : 8 bits
Scan type : Progressive
Compression mode : Lossy
Bits/(Pixel*Frame) : 0.236
Stream size : 1 007 MiB (68%)
Writing library : XviD 73
Audio #1
ID : 1
Format : AC-3
Format/Info : Audio Coding 3
Mode extension : CM (complete main)
Format settings, Endianness : Big
Codec ID : 2000
Duration : 1h 26mn
Bit rate mode : Constant
Bit rate : 384 Kbps
Channel(s) : 6 channels
Channel positions : Front: L C R, Side: L R, LFE
Sampling rate : 48.0 KHz
Compression mode : Lossy
Stream size : 237 MiB (16%)
Alignment : Split accross interleaves
Interleave, duration : 42 ms (1.00 video frame)
Interleave, preload duration : 500 ms
Title : xixidok
Audio #2
ID : 2
Format : AC-3
Format/Info : Audio Coding 3
Mode extension : CM (complete main)
Format settings, Endianness : Big
Codec ID : 2000
Duration : 1h 26mn
Bit rate mode : Constant
Bit rate : 384 Kbps
Channel(s) : 6 channels
Channel positions : Front: L C R, Side: L R, LFE
Sampling rate : 48.0 KHz
Compression mode : Lossy
Stream size : 237 MiB (16%)
Alignment : Split accross interleaves
Interleave, duration : 42 ms (1.00 video frame)
Interleave, preload duration : 500 ms

Скриншот c названием фильма

Скриншоты




Создавать темы 29-Июн-2015 04:46

[Профиль]  [ЛС] 

mars751

Стаж: 5 лет 5 месяцев

Сообщений: 227

Симпатии: 113

как фильм?

Создавать темы 30-Июн-2015 00:03

[Профиль]  [ЛС] 
Показать сообщения:    
Ответить на тему

Текущее время: 20-Сен 03:30

Часовой пояс: UTC + 5



Вы не можете начинать темы
Вы не можете отвечать на сообщения
Вы не можете редактировать свои сообщения
Вы не можете удалять свои сообщения
Вы не можете голосовать в опросах
Вы не можете прикреплять файлы к сообщениям
Вы не можете скачивать файлы